Flickan i frack (Karin Swanström, 1926) HD 1080p VOSE

La edad de la Pantalla de Plata. Publica y encuentra enlaces p2p de filmes silentes (desde los albores del Cine hasta los años 30) en esta sección.
Responder
Avatar de Usuario
JoeGillis
Mensajes: 122
Registrado: Vie 18 May, 2007 23:04
Ubicación: Cuenca
Contactar:

Flickan i frack (Karin Swanström, 1926) HD 1080p VOSE

Mensaje por JoeGillis » Jue 10 Jun, 2021 18:32

FLICKAN I FRACK
(La chica del frac)


Imagen

Imagen

FILMAFFINITY

Director: Karin Swanström
Reparto: Einar Axelsson, Magda Holm, Nils Aréhn, Georg Blomstedt, Karin Swanström, Kar de Mumma, Carina May, Lotten Olsson, Anna-Lisa Baude, Gösta Gustafson, Kurt Welin, Albert Ståhl, Edla Rothgardt, Julia Cæsar
Guion: Hjalmar Bergman, Ivar Johansson (Novela: Hjalmar Bergman)
Año: 1926
País: Suecia
Duración: 121 min.
Producción: Biografernas Filmdepot
Género: Comedia

Argumento: Katja es una joven con poco éxito entre sus compañeras de universidad. Le falta encanto porque su hermano dispone de la ropa necesaria para ser un esnob y a ella no le dan dinero para comprarse los vestidos que necesita. La forma que tiene para mostrar su repuesta a esa discriminación es vestirse con un frac de su hermano e ir a la fiesta más chic de la ciudad.

ImagenImagen
ImagenImagen
ImagenImagen

Datos Técnicos:
Spoiler: mostrar
Format : Matroska
Format version : Version 4 / Version 2
File size : 4.27 GiB
Duration : 2 h 1 min
Overall bit rate : 5 050 kb/s
Encoded date : UTC 2021-06-08 08:49:22
Writing application : mkvmerge v9.1.0 ('Little Earthquakes') 64bit
Writing library : libebml v1.3.3 + libmatroska v1.4.4 / Lavf58.29.100

Video
ID : 1
Format : AVC
Format/Info : Advanced Video Codec
Format profile : Main@L4.1
Format settings, CABAC : Yes
Format settings, ReFrames : 4 frames
Codec ID : V_MPEG4/ISO/AVC
Duration : 2 h 1 min
Bit rate : 4 600 kb/s
Width : 1 484 pixels
Height : 1 080 pixels
Display aspect ratio : 1.374
Frame rate mode : Constant
Frame rate : 24.000 FPS
Color space : YUV
Chroma subsampling : 4:2:0
Bit depth : 8 bits
Scan type : Progressive
Bits/(Pixel*Frame) : 0.120
Stream size : 3.89 GiB (91%)
Writing library : x264 core 157 r2935 545de2f
Encoding settings : cabac=1 / ref=3 / deblock=1:-1:-1 / analyse=0x1:0x111 / me=hex / subme=7 / psy=1 / psy_rd=1.00:0.15 / mixed_ref=1 / me_range=16 / chroma_me=1 / trellis=1 / 8x8dct=0 / cqm=0 / deadzone=21,11 / fast_pskip=1 / chroma_qp_offset=-3 / threads=6 / lookahead_threads=1 / sliced_threads=0 / nr=0 / decimate=1 / interlaced=0 / bluray_compat=0 / constrained_intra=0 / bframes=3 / b_pyramid=2 / b_adapt=1 / b_bias=0 / direct=1 / weightb=1 / open_gop=0 / weightp=2 / keyint=240 / keyint_min=24 / scenecut=40 / intra_refresh=0 / rc_lookahead=40 / rc=2pass / mbtree=1 / bitrate=4600 / ratetol=1.0 / qcomp=0.60 / qpmin=0 / qpmax=69 / qpstep=4 / cplxblur=20.0 / qblur=0.5 / vbv_maxrate=50000 / vbv_bufsize=62500 / nal_hrd=none / filler=0 / ip_ratio=1.40 / aq=1:1.00
Language : Swedish
Default : Yes
Forced : No
Color range : Limited
Color primaries : BT.709
Transfer characteristics : BT.709
Matrix coefficients : BT.709

Audio
ID : 2
Format : AC-3
Format/Info : Audio Coding 3
Mode extension : CM (complete main)
Format settings, Endianness : Big
Codec ID : A_AC3
Duration : 2 h 1 min
Bit rate mode : Constant
Bit rate : 448 kb/s
Channel(s) : 6 channels
Channel positions : Front: L C R, Side: L R, LFE
Sampling rate : 48.0 kHz
Frame rate : 31.250 FPS (1536 spf)
Compression mode : Lossy
Stream size : 388 MiB (9%)
Default : Yes
Forced : No

Text
ID : 3
Format : UTF-8
Codec ID : S_TEXT/UTF8
Codec ID/Info : UTF-8 Plain Text
Duration : 2 h 0 min
Bit rate : 17 b/s
Count of elements : 294
Stream size : 15.4 KiB (0%)
Language : Spanish
Default : Yes
Forced : No

Imagen


Comentario de Eddie Constanti:

La trama es la siguiente: joven a la que no se le da el dinero para cambiarse de vestidos, mientras que a su hermano se le permite tener un vestuario más que suficiente. Ella decide dar "el golpe" presentándose en el baile principal de la ciudad con un frac de su hermano. El problema estalla. Esa joven ha cometido una desfachatez al vestirse con un frac. Su padre la llama "puta" y ella debe huir con su pretendiente, un noble, a casa de unas familiares, unas damas libres de prejuicios, donde se podrá refugiar de una sociedad que no la comprende.

Con este argumento, se podía desarrollar un drama de mucho cuidado, muy al estilo de las conocidas sagas nórdicas o bien...
rebozarlo todo con esa especie de toque mágico entre comedia y crítica social, tan propio del cine sueco de estas postreras etapas del silente de su país. Karin Swanström recoge el tema original y lo convierte, casi, en un divertimento. A ello ayuda el excelente protagonismo de Magda Hom, en ese papel de la joven que se sabe fea pero que termina triunfando en sus problemas y en el amor, y de Einar Akelsson, ese conde venido a menos que parece estar un poco "fuera de lugar", pero que, en el momento que más interesa, está donde más se le necesita.

Es una hermosa película. Pausada, con sus contrapuntos de tensión, de comicidad y de situaciones límite bien resueltas, que nos reafirma en la idea de que el silente sueco fue más allá de las obras maestra de los grandes apellidos que todos conocemos.

Subtítulos en español de Eddie Constanti dentro del contenedor del archivo.

ed2k linkFlickan.I.Frack.1926.1080P.Web-Dl.Ddp5.1.H.264.mkv ed2k link stats

Imagen

:D

kabuki
Mensajes: 271
Registrado: Dom 03 Oct, 2004 02:00

Re: Flickan i frack (Karin Swanström, 1926) HD 1080p VOSE

Mensaje por kabuki » Jue 10 Jun, 2021 20:47

Muchas gracias,JoeGillis.

Responder