Eine tolle Nacht (Richard Oswald, 1926) HD 720p VOSE

La edad de la Pantalla de Plata. Publica y encuentra enlaces p2p de filmes silentes (desde los albores del Cine hasta los años 30) en esta sección.
Responder
Takumar
Mensajes: 23
Registrado: Mié 10 Ago, 2011 16:21

Eine tolle Nacht (Richard Oswald, 1926) HD 720p VOSE

Mensaje por Takumar » Mar 17 Sep, 2019 17:56

.
Eine tolle Nacht

Imagen
Director: Richard Oswald
Writers: Julius Freund (play), Wilhelm Mannstaedt (play)
Stars: Ossi Oswalda, Harry Liedtke, Henry Bender

https://www.imdb.com/title/tt0138138/?ref_=fn_al_tt_1

Based on a popular music revue of the imperial era, Richard Oswald tells the story of a provincial insect repellent producer who follows a vaudeville star he loves to Berlin and finds himself in a whirlpool of voluntary and involuntary adventures. He encounters revue girls, policemen, Indian Radjas and wrestlers. The scene changes from sparkling restaurants and dance cafés to pubs and police stations. Oswald's comedy is an anarchic-seeming, shrill ramble through the Berlin of the "wild" 1920s and its notorious nightlife. Created on original locations, Oswald's film also provides an impressive portrait of the city of four million at the time, with its hectic pace, its construction sites and its social contrasts.
Long thought to have been lost, A GREAT NIGHT was rediscovered in the State Russian Film Archive Gosfilmofond and digitally restored by Omnimago GmbH in 2019.

Imagen
Imagen
Imagen

Eine tolle Nacht (Richard Oswald, 1926) WebRip VOSE.mp4

Código: Seleccionar todo

General

Format                                   : MPEG-4
Format profile                           : Base Media / Version 2
Codec ID                                 : mp42 (isom/mp42)
File size                                : 846 MiB
Duration                                 : 1 h 24 min
Overall bit rate mode                    : Variable
Overall bit rate                         : 1 403 kb/s
Encoded date                             : UTC 2019-08-26 13:56:26
Tagged date                              : UTC 2019-08-26 13:56:26
gsst                                     : 0
gstd                                     : 5057933

Video
ID                                       : 1
Format                                   : AVC
Format/Info                              : Advanced Video Codec
Format profile                           : Main@L3.1
Format settings, CABAC                   : Yes
Format settings, ReFrames                : 3 frames
Codec ID                                 : avc1
Codec ID/Info                            : Advanced Video Coding
Duration                                 : 1 h 24 min
Bit rate                                 : 1 272 kb/s
Width                                    : 1 280 pixels
Height                                   : 720 pixels
Display aspect ratio                     : 16:9
Frame rate mode                          : Constant
Frame rate                               : 25.000 FPS
Color space                              : YUV
Chroma subsampling                       : 4:2:0
Bit depth                                : 8 bits
Scan type                                : Progressive
Bits/(Pixel*Frame)                       : 0.055
Stream size                              : 767 MiB (91%)
Title                                    : ISO Media file produced by Google Inc. Created on: 08/26/2019.
Encoded date                             : UTC 2019-08-26 13:56:26
Tagged date                              : UTC 2019-08-26 13:56:26
Color range                              : Limited
Color primaries                          : BT.709
Transfer characteristics                 : BT.709
Matrix coefficients                      : BT.709

Audio
ID                                       : 2
Format                                   : AAC
Format/Info                              : Advanced Audio Codec
Format profile                           : LC
Codec ID                                 : 40
Duration                                 : 1 h 24 min
Bit rate mode                            : Variable
Bit rate                                 : 128 kb/s
Channel(s)                               : 2 channels
Channel positions                        : Front: L R
Sampling rate                            : 44.1 kHz
Frame rate                               : 43.066 FPS (1024 spf)
Compression mode                         : Lossy
Stream size                              : 77.2 MiB (9%)
Title                                    : ISO Media file produced by Google Inc. Created on: 08/26/2019.
Encoded date                             : UTC 2019-08-26 13:56:26
Tagged date                              : UTC 2019-08-26 13:56:26
There's also a larger version:

Eine.tolle.Nacht.1926.German.Subbed.720p.HDTV.x264.mkv

I haven't seen the larger file.

Subtitles in English and Spanish are available at www.opensubtitles.org

Español: https://www.opensubtitles.org/es/subtit ... e-nacht-es
English: https://www.opensubtitles.org/en/subtit ... e-nacht-en

Sorry, I don't code much in HTML so this posting likely needs a lot of cleaning up.

Avatar de Usuario
Jacob
Exprópiese
Mensajes: 9611
Registrado: Jue 01 Jul, 2004 02:00
Ubicación: Where no one has gone before!

Re: Eine tolle Nacht (Richard Oswald, 1926) HD 720p VOSE

Mensaje por Jacob » Mié 18 Sep, 2019 14:53

Takumar escribió:
Mar 17 Sep, 2019 17:56
Sorry, I don't code much in HTML so this posting likely needs a lot of cleaning up.
No problem, I took care of it. :wink:

Thanks for the rip. :sonrisa:

teoremista
Mensajes: 386
Registrado: Vie 18 May, 2007 10:56

Re: Eine tolle Nacht (Richard Oswald, 1926) HD 720p VOSE

Mensaje por teoremista » Sab 21 Sep, 2019 19:25

Gracias!!

kabuki
Mensajes: 265
Registrado: Dom 03 Oct, 2004 02:00

Re: Eine tolle Nacht (Richard Oswald, 1926) HD 720p VOSE

Mensaje por kabuki » Dom 22 Sep, 2019 21:22

Muchas gracias,Takumar.

Avatar de Usuario
eulsus
Mensajes: 1246
Registrado: Vie 18 May, 2007 10:41
Ubicación: La Palma

Re: Eine tolle Nacht (Richard Oswald, 1926) HD 720p VOSE

Mensaje por eulsus » Mar 24 Sep, 2019 00:01

Publicada previamente en CinefórumClásico por fifole con autoría de Eddie Constanti, a quienes ni se menciona (aunque solo fuera a Eddie como autor del subtítulo alojado en subdivx).
https://www.cineforum-clasico.org/forum ... olle+Nacht
Imagen
Antonio García-Trevijano Forte (1927-2018)
"Para que yo sea libre, todos tienen que ser libres"

Abstención activa hasta que haya Libertad Colectiva

Responder