Don Juan Tenorio (Ricardo de Baños, 1922) WEBRip

La edad de la Pantalla de Plata. Publica y encuentra enlaces p2p de filmes silentes (desde los albores del Cine hasta los años 30) en esta sección.
DCINE

Mensajes: 326
Registrado: Mar 20 Dic, 2016 15:02

Don Juan Tenorio (Ricardo de Baños, 1922) WEBRip

Mensajepor DCINE » Vie 02 Feb, 2018 16:42

Don Juan Tenorio (El castigador castigado)
(Versión silente original)
1922

Imagen

Imagen


DIRECTOR: Ricardo de Baños
GUIÓN: Ricardo de Baños



ARGUMENTO Conocido en Sevilla por su osadía y su fama de conquistador, don Juan Tenorio estaba acostumbrado a salir airoso de todos los lances que emprendía, ya fuera en el juego, en los duelos en las peleas o en el amor de las mujeres que deseaba. Hasta que un día, por una apuesta, se cruza en el camino de doña Inés de Ulloa, una joven novicia a punto de convertirse en monja que le enamorará y le hará cambiar de vida. (FILMAFFINITY) IMDB: http://www.imdb.com/title/tt0013078/

Versión Sonorizada en 1936: viewtopic.php?f=1002&t=75774

Reparto: Francisco Aguiló, Inocencia Alcubierre, Teresa Arquer, Ramón Bañeras, Antonia Baró, Pepita Berenguer, Fortunio Bonanova, Juan de Mata, Pau Prou de Vendrell, Ricardo Fuster, Conchita Huerta, Julio López de Castilla, José Martí, Godofredo Mateldi, Julio Nolla, Copérnico Olver, Jaime Planas, Luisa Prats, Ramón Quadreny, Antonio Salom y Gustavo Yñiguez


Datos Técnicos:


Código: Seleccionar todo

General:

Complete name                    : 1922 Don Juan Tenorio (El castigador castigado) (Ricardo de Baños, 1922) WEBRip Int.ESP (Versión Silente Original).mp4
Format                           : MPEG-4
Format profile                   : Base Media / Version 2
Codec ID                         : mp42
File size                        : 269 MiB
Duration                         : 52mn 37s
Overall bit rate mode            : Variable
Overall bit rate                 : 715 Kbps
Encoded date                     : UTC 2017-08-29 11:28:17
Tagged date                      : UTC 2017-08-29 11:28:17

Video
ID                               : 1
Format                           : AVC
Format/Info                      : Advanced Video Codec
Format profile                   : Baseline@L2.1
Format settings, CABAC           : No
Format settings, ReFrames        : 1 frame
Codec ID                         : avc1
Codec ID/Info                    : Advanced Video Coding
Duration                         : 52mn 37s
Bit rate                         : 616 Kbps
Maximum bit rate                 : 1 535 Kbps
Width                            : 480 pixels
Height                           : 360 pixels
Display aspect ratio             : 4:3
Frame rate mode                  : Constant
Frame rate                       : 25.000 fps
Color space                      : YUV
Chroma subsampling               : 4:2:0
Bit depth                        : 8 bits
Scan type                        : Progressive
Bits/(Pixel*Frame)               : 0.143
Stream size                      : 232 MiB (86%)
Tagged date                      : UTC 2017-08-29 11:28:29

Audio
ID                               : 2
Format                           : AAC
Format/Info                      : Advanced Audio Codec
Format profile                   : LC
Codec ID                         : 40
Duration                         : 52mn 37s
Bit rate mode                    : Variable
Bit rate                         : 96.0 Kbps
Maximum bit rate                 : 104 Kbps
Channel(s)                       : 2 channels
Channel positions                : Front: L R
Sampling rate                    : 44.1 KHz
Compression mode                 : Lossy
Stream size                      : 36.1 MiB (13%)
Title                            : IsoMedia File Produced by Google, 5-11-2011
Language                         : English
Encoded date                     : UTC 2017-08-29 11:28:24
Tagged date                      : UTC 2017-08-29 11:28:29





Capturas:

ImagenImagen
ImagenImagen
ImagenImagen
ImagenImagen
ImagenImagen


Enlace: (Encontrado en emule)

1922 Don Juan Tenorio (El castigador castigado) (Ricardo de Baños, 1922) WEBRip Int.ESP (Versión Silente Original).mp4 [269.09 Mb] [Info]

DD: https://mega.nz/#!9phnERqJ!oKplvRx1Q3k6 ... T9AkMNflTI

Avatar de Usuario
Jacob
Exprópiese

Mensajes: 9087
Registrado: Jue 01 Jul, 2004 02:00
Ubicación: Where no one has gone before!

Re: Don Juan Tenorio (Ricardo de Baños, 1922) WEBRip

Mensajepor Jacob » Sab 03 Feb, 2018 15:14

Gracias, DCine.

kabuki

Mensajes: 256
Registrado: Dom 03 Oct, 2004 02:00

Re: Don Juan Tenorio (Ricardo de Baños, 1922) WEBRip

Mensajepor kabuki » Sab 03 Feb, 2018 17:01

Muchas gracias,Dcine.


Volver a “Cine Silente”

¿Quién está conectado?

Usuarios navegando por este Foro: No hay usuarios registrados visitando el Foro y 2 invitados