Estampas 1932 (José Val del Omar, 1932) DVDRip

La edad de la Pantalla de Plata. Publica y encuentra enlaces p2p de filmes silentes (desde los albores del Cine hasta los años 30) en esta sección.
DCINE

Mensajes: 191
Registrado: Mar 20 Dic, 2016 15:02

Estampas 1932 (José Val del Omar, 1932) DVDRip

Mensajepor DCINE » Vie 14 Abr, 2017 13:11

Estampas 1932
1932

Imagen

DIRECTOR: José Val del Omar
GUIÓN: José Val del Omar
FOTOGRAFÍA: José Val del Omar



ARGUMENTO Valioso documento que retrata el programa de acción esencial de las Misiones Pedagógicas. Se trata de un film institucional –como tal, concebido para unas funciones de promoción, testimonio y propaganda–, aunque pueden reconocerse algunos de los aspectos que más reclamarían la atención de Val del Omar como ''misionero de la cámara'' –el arrobamiento de los aldeanos ante las proyecciones, el semblante franco de los niños–, tal como lo atestiguan los centenares de fotografías que realizó en aquellos mismos años. (FILMAFFINITY) IMDB: www.imdb.com/title/tt1870388/





Datos Técnicos:

La calidad no es muy buena, pero es la única que hay

Código: Seleccionar todo

General:


Complete name                    : 1932 Estampas 1932 (José Val del Omar, 1932) DVDRip VO.avi
Format                           : AVI
Format/Info                      : Audio Video Interleave
File size                        : 171 MiB
Duration                         : 12mn 53s
Overall bit rate                 : 1 856 Kbps
Writing application              : Lavf55.34.101

Video
ID                               : 0
Format                           : MPEG-4 Visual
Format profile                   : Simple@L1
Format settings, BVOP            : No
Format settings, QPel            : No
Format settings, GMC             : No warppoints
Format settings, Matrix          : Default (H.263)
Codec ID                         : MP4V
Codec ID/Info                    : Apple QuickTime MPEG-4 native
Duration                         : 12mn 53s
Bit rate                         : 1 716 Kbps
Width                            : 480 pixels
Height                           : 360 pixels
Display aspect ratio             : 4:3
Frame rate                       : 25.000 fps
Color space                      : YUV
Chroma subsampling               : 4:2:0
Bit depth                        : 8 bits
Scan type                        : Progressive
Compression mode                 : Lossy
Bits/(Pixel*Frame)               : 0.397
Stream size                      : 158 MiB (92%)
Writing library                  : Lavc55.52.102

Audio
ID                               : 1
Format                           : MPEG Audio
Format version                   : Version 1
Format profile                   : Layer 3
Mode                             : Joint stereo
Mode extension                   : MS Stereo
Codec ID                         : 55
Codec ID/Hint                    : MP3
Duration                         : 12mn 53s
Bit rate mode                    : Constant
Bit rate                         : 128 Kbps
Channel(s)                       : 2 channels
Sampling rate                    : 44.1 KHz
Compression mode                 : Lossy
Stream size                      : 11.8 MiB (7%)
Alignment                        : Aligned on interleaves
Interleave, duration             : 26 ms (0.65 video frame)
Interleave, preload duration     : 26 ms
Writing library                  : LAME3.99.5








Capturas:

Imagen
Imagen
Imagen
Imagen

Enlace:

1932 Estampas 1932 (José Val del Omar, 1932) DVDRip VO.avi [171.19 Mb] [Info]

Volver a “Cine Silente”

¿Quién está conectado?

Usuarios navegando por este Foro: No hay usuarios registrados visitando el Foro y 2 invitados