Vom Reiche der sechs Punkte (Hugo Rütters, 1927) DVDRip VOSE

La edad de la Pantalla de Plata. Publica y encuentra enlaces p2p de filmes silentes (desde los albores del Cine hasta los años 30) en esta sección.
jotarapidup

Mensajes: 138
Registrado: Jue 10 Dic, 2009 01:02

Vom Reiche der sechs Punkte (Hugo Rütters, 1927) DVDRip VOSE

Mensajepor jotarapidup » Sab 15 Feb, 2014 07:18

Imagen

DEL REINO DE LOS SEIS PUNTOS

Un ingeniero de la industria del acero, durante su trabajo y de forma accidental, pierde la vista. Su novia intenta hacerle recuperar las ganas de vivir perdidas, lo que logrará con la ayuda de un centro dedicado a la enseñanaza de oficios para invidentes en los que se tenga en cuenta su discapacidad. (FILMAFFINITY)
----------------------------------------------------------------------------
Película que muestra las condiciones en que viven las personas invidentes en la Alemania de la época. (Circulodebellasartes)
----------------------------------------------------------------------------
Es una interesante película-documental sobre la ceguera... en 1927. El título significa algo así como "Del reino de los seis puntos" (los que emplea el método Braille). (toerless)

Reparto: Hubert Horbach, Lotte Kleinschmidt, Heinrich Langen, Josef Mainz, Herr Metzler, Johannes Nießen, Josef Petri

http://www.imdb.com/title/tt1127899


Imagen
Imagen
Imagen
Imagen
Imagen
Imagen
Imagen
Imagen

Código: Seleccionar todo

General
Complete name                            : C:\Users\juaco\Downloads\eMule\Incoming\Hugo Rütters - Vom Reiche der sechs Punkte (1927).DVDRip-KG.avi
Format                                   : AVI
Format/Info                              : Audio Video Interleave
File size                                : 1.32 GiB
Duration                                 : 1h 35mn
Overall bit rate                         : 1 990 Kbps
Writing application                      : VirtualDubMod 1.5.10.2 (build 2542/release)
Writing library                          : VirtualDubMod build 2542/release

Video
ID                                       : 0
Format                                   : MPEG-4 Visual
Format profile                           : Advanced Simple@L5
Format settings, BVOP                    : 2
Format settings, QPel                    : No
Format settings, GMC                     : No warppoints
Format settings, Matrix                  : Default (MPEG)
Codec ID                                 : XVID
Codec ID/Hint                            : XviD
Duration                                 : 1h 35mn
Bit rate                                 : 1 720 Kbps
Width                                    : 688 pixels
Height                                   : 516 pixels
Display aspect ratio                     : 4:3
Frame rate                               : 25.000 fps
Color space                              : YUV
Chroma subsampling                       : 4:2:0
Bit depth                                : 8 bits
Scan type                                : Progressive
Compression mode                         : Lossy
Bits/(Pixel*Frame)                       : 0.194
Stream size                              : 1.14 GiB (86%)
Writing library                          : XviD 1.2.1 (UTC 2008-12-04)

Audio #1
ID                                       : 1
Format                                   : MPEG Audio
Format version                           : Version 1
Format profile                           : Layer 3
Mode                                     : Joint stereo
Mode extension                           : MS Stereo
Codec ID                                 : 55
Codec ID/Hint                            : MP3
Duration                                 : 1h 35mn
Bit rate mode                            : Constant
Bit rate                                 : 128 Kbps
Channel(s)                               : 2 channels
Sampling rate                            : 48.0 KHz
Compression mode                         : Lossy
Stream size                              : 87.2 MiB (6%)
Alignment                                : Aligned on interleaves
Interleave, duration                     : 40 ms (1.00 video frame)
Interleave, preload duration             : 504 ms

Audio #2
ID                                       : 2
Format                                   : MPEG Audio
Format version                           : Version 1
Format profile                           : Layer 3
Mode                                     : Joint stereo
Mode extension                           : MS Stereo
Codec ID                                 : 55
Codec ID/Hint                            : MP3
Duration                                 : 1h 35mn
Bit rate mode                            : Constant
Bit rate                                 : 128 Kbps
Channel(s)                               : 2 channels
Sampling rate                            : 48.0 KHz
Compression mode                         : Lossy
Stream size                              : 87.2 MiB (6%)
Alignment                                : Aligned on interleaves
Interleave, duration                     : 40 ms (1.00 video frame)
Interleave, preload duration             : 504 ms

DVDRip de redandr para KG

E-LINK:
Hugo Rütters - Vom Reiche der sechs Punkte (1927).DVDRip-KG.avi [1.32 Gb] [Info]

Subtítulo en español cortesía de toerless:
http://subscene.com/subtitles/vom-reich ... ish/861423

Subtítulo en inglés:
Hugo Rütters - Vom Reiche der sechs Punkte (1927).DVDRip-KG.ENG.srt [25.1 Kb] [Info]


[ Añade 2 enlaces a eMule ]

Avatar de Usuario
dhrapi
Dipsómano consagrado.

Mensajes: 6375
Registrado: Jue 06 Nov, 2003 01:00
Ubicación: En la boda de Ignatius Reilly; con Tupp.

Re: Vom Reiche der sechs Punkte (Hugo Rütters, 1927) DVDRip VOSE

Mensajepor dhrapi » Sab 15 Feb, 2014 11:37

Interesante.

Muchas gracias, jotarapidup.

:wink:
Jamás saldré vivo de este mundo.
Imagen


Volver a “Cine Silente”

¿Quién está conectado?

Usuarios navegando por este Foro: No hay usuarios registrados visitando el Foro y 2 invitados