Spite Marriage (Edward Sedgwick & Buster Keaton, 1929) HD 1080p VOSE

La edad de la Pantalla de Plata. Publica y encuentra enlaces p2p de filmes silentes (desde los albores del Cine hasta los años 30) en esta sección.
Responder
Avatar de Usuario
baldomp
Mensajes: 511
Registrado: Mar 15 Ago, 2017 12:55

Spite Marriage (Edward Sedgwick & Buster Keaton, 1929) HD 1080p VOSE

Mensaje por baldomp » Mar 06 Oct, 2020 14:46


Spite marriage (1929)
«El comparsa»

Imagen
Imagen
Datos
  • Título original: Spite marriage
  • Año: 1929
  • Duración: 76 min.
  • País: USA
  • Director: Edward Sedgwick, Buster Keaton
  • Guión: Lew Lipton (historia), Ernest Pagano (adaptación)
  • Reparto:
    • Buster Keaton
    • Dorothy Sebastian
    • Edward Earle
    • Leila Hyams
    • William Bechtel
  • Productora: Metro-Goldwyn-Mayer (MGM)
el comparsa"

[*]datos técnicos:
  • Formato: 35mm
  • Color: Blanco y negro
  • Lentes: Spherical
  • Audio Mono
  • AR: 1.33:1
Sinopsis.
Un hombre poco impresionante pero con buenas intenciones tiene la oportunidad de casarse con una actriz popular, de la que ha sido un fanático desesperado. Pero de lo que no se da cuenta es de que lo están utilizando para poner celosa al viejo amor de la actriz. (de IMDB)

"La última muda de Keaton"
Aunque la podeis encontrar (como tantas de la época) en Youtube, este es el extra que os comenté iba en el BR "The Cameraman" de Criterion. Y como es habitual, es una copia muy cuidada, tras una nueva restauración 2K.

Y es la última de Keaton antes de entrar en la "sonoridad" ("Pobre Tenorio"...etc). Conserva (como no) muchas de las constantes de las historias de Keaton, del cine de la época en sí: la búsqueda de un amor "imposible" por parte de un hombre "normal".

Así que... a disfrutar de "Pamplinas" en esta nueva colaboración con Sedgwick tras "The cameraman"
La fuente

ISO completa del BluRay "The cameraman" de Criterion

Vídeo:Eliminación de marco negro y recodificación H264.
Audio:Score del BR Criterion (AAC)
Subtítulos: Traducción de intertítulos, de "opensubtitles" un tanto revisada y remozada."Marido por despecho"(eltítulo que aparece en estos subs) fué el título en Argentina ("El comparsa" en nuestras tierras...).


Imagen
Spoiler: mostrar

Imagen

Imagen

"Sonora" porque sonaba, no porque hablasen...

Imagen

"Cara de palo" en los toros en España, el mismo año de producción de esta película

Imagen

Un guión manuscrito y ciclostilado subastado hace un tiempo




Stream

Código: Seleccionar todo

Format                                   : Matroska
Format version                           : Version 4
File size                                : 3.71 GiB
Duration                                 : 1 h 16 min
Overall bit rate                         : 6 963 kb/s
Encoded date                             : UTC 2020-10-06 09:16:14
Writing application                      : mkvmerge v34.0.0 ('Sight and Seen') 64-bit
Writing library                          : libebml v1.3.7 + libmatroska v1.5.0

Video
ID                                       : 1
Format                                   : AVC
Format/Info                              : Advanced Video Codec
Format profile                           : Main@L4
Format settings                          : CABAC / 4 Ref Frames
Format settings, CABAC                   : Yes
Format settings, Reference frames        : 4 frames
Codec ID                                 : V_MPEG4/ISO/AVC
Duration                                 : 1 h 16 min
Bit rate                                 : 6 805 kb/s
Width                                    : 1 440 pixels
Height                                   : 1 080 pixels
Display aspect ratio                     : 4:3
Frame rate mode                          : Constant
Frame rate                               : 23.976 (24000/1001) FPS
Color space                              : YUV
Chroma subsampling                       : 4:2:0
Bit depth                                : 8 bits
Scan type                                : Progressive
Bits/(Pixel*Frame)                       : 0.182
Stream size                              : 3.63 GiB (98%)
Writing library                          : x264 core 157 r2935 545de2f
Encoding settings                        : cabac=1 / ref=3 / deblock=1:-1:-1 / analyse=0x1:0x111 / me=hex / subme=7 / psy=1 / psy_rd=1.00:0.15 / mixed_ref=1 / me_range=16 / chroma_me=1 / trellis=1 / 8x8dct=0 / cqm=0 / deadzone=21,11 / fast_pskip=1 / chroma_qp_offset=-3 / threads=6 / lookahead_threads=1 / sliced_threads=0 / nr=0 / decimate=1 / interlaced=0 / bluray_compat=0 / constrained_intra=0 / bframes=3 / b_pyramid=2 / b_adapt=1 / b_bias=0 / direct=1 / weightb=1 / open_gop=0 / weightp=2 / keyint=240 / keyint_min=24 / scenecut=40 / intra_refresh=0 / rc_lookahead=40 / rc=crf / mbtree=1 / crf=20.5 / qcomp=0.60 / qpmin=0 / qpmax=69 / qpstep=4 / vbv_maxrate=20000 / vbv_bufsize=25000 / crf_max=0.0 / nal_hrd=none / filler=0 / ip_ratio=1.40 / aq=1:1.00
Default                                  : Yes
Forced                                   : Yes
Color range                              : Limited
Color primaries                          : BT.709
Transfer characteristics                 : BT.709
Matrix coefficients                      : BT.709

Audio
ID                                       : 2
Format                                   : AAC LC
Format/Info                              : Advanced Audio Codec Low Complexity
Codec ID                                 : A_AAC-2
Duration                                 : 1 h 16 min
Bit rate                                 : 156 kb/s
Channel(s)                               : 1 channel
Channel layout                           : C
Sampling rate                            : 48.0 kHz
Frame rate                               : 46.875 FPS (1024 SPF)
Compression mode                         : Lossy
Delay relative to video                  : -21 ms
Stream size                              : 85.3 MiB (2%)
Title                                    : Audio
Default                                  : Yes
Forced                                   : Yes

Text
ID                                       : 3
Format                                   : UTF-8
Codec ID                                 : S_TEXT/UTF8
Codec ID/Info                            : UTF-8 Plain Text
Duration                                 : 1 h 15 min
Bit rate                                 : 8 b/s
Count of elements                        : 110
Stream size                              : 4.74 KiB (0%)
Title                                    : castellano
Language                                 : Spanish
Default                                  : Yes
Forced                                   : Yes

Capturas.
Imagen

Imagen

Imagen

Imagen

Imagen



El Enlace.

ed2k linkSpite marriage. El comparsa (Sedgwick-Keaton 1929) BDRip 1080p Silente (Intert. ENG, Subs SPA).mkv ed2k link stats


Gracias.
De nuevo, muchas gracias a quienes comparten, difunden y posibilitan que el CINE (así, en mayúsculas) llegue a todos.


Avatar de Usuario
Spanish Jhonny
Mensajes: 3668
Registrado: Mar 18 Sep, 2012 16:01

Re: Spite marriage (Sedgwick-Keaton, 1929) HD1080p VO + SE

Mensaje por Spanish Jhonny » Mar 06 Oct, 2020 17:03

Muchas gracias baldomp, ya está pinchada ;) :plas: :plas:

Avatar de Usuario
janca
Mensajes: 2306
Registrado: Dom 20 Dic, 2009 09:31

Re: Spite marriage (Sedgwick-Keaton, 1929) HD1080p VO + SE

Mensaje por janca » Mar 06 Oct, 2020 17:32

Muchas gracias Baldomp

Avatar de Usuario
Jacob
Exprópiese
Mensajes: 10197
Registrado: Jue 01 Jul, 2004 02:00
Ubicación: Where no one has gone before!

Re: Spite marriage (Sedgwick & Keaton, 1929) HD 1080p VOSE

Mensaje por Jacob » Mar 06 Oct, 2020 23:10

¡¡Ese es mi baldomp!! :mrgreen:

Otra que tengo pendiente del maestro.

JeremyFox
Mensajes: 269
Registrado: Sab 02 Ene, 2010 13:18
Contactar:

Re: Spite Marriage (Edward Sedgwick & Buster Keaton, 1929) HD 1080p VOSE

Mensaje por JeremyFox » Sab 08 Jul, 2023 10:05

Una que no he visto de Keaton!! Muchas gracias!!

Ageopy
Mensajes: 1
Registrado: Jue 30 Nov, 2023 11:38

Re: Spite Marriage (Edward Sedgwick & Buster Keaton, 1929) HD 1080p VOSE

Mensaje por Ageopy » Jue 30 Nov, 2023 11:40


Responder