L'autre aile (Henri Andréani, 1923) HD 1080p VOSE

La edad de la Pantalla de Plata. Publica y encuentra enlaces p2p de filmes silentes (desde los albores del Cine hasta los años 30) en esta sección.
Avatar de Usuario
JoeGillis
Mensajes: 122
Registrado: Vie 18 May, 2007 23:04
Ubicación: Cuenca
Contactar:

L'autre aile (Henri Andréani, 1923) HD 1080p VOSE

Mensaje por JoeGillis » Sab 22 Ene, 2022 11:22

L'AUTRE AILE

Imagen

Imagen

FILMAFFINITY

Director: Henri Andréani
Reparto: Marthe Ferrare, Jean Murat, Charles Vanel, Mary Harald, Claude France, André Bertoux
Guion: Charles-Félix Tavano (Novela: Ricciotto Canudo)
Año: 1923
País: Francia
Duración: 75 min.
Producción: Dal-Film
Género: Drama

Argumento: Retrato de una sociedad en decadencia, cuatro años después del final de la guerra, en la que los héroes de la aviación de antaño se ven obligados a sobrevivir como máquinas para ser explotadas, y donde los recuerdos del sufrimiento compartido son sumergidos por los intereses del capitalismo -y a veces del amor.



ImagenImagen
ImagenImagen
ImagenImagen


Datos Técnicos:
Spoiler: mostrar
Format : iso5
Codec ID : iso5 (iso5/iso6/mp41)
File size : 2.62 GiB
Duration : 1 h 15 min
Overall bit rate : 4 988 kb/s
Writing application : Lavf59.4.101

Video
ID : 1
Format : AVC
Format/Info : Advanced Video Codec
Format profile : High@L4
Format settings, CABAC : Yes
Format settings, ReFrames : 5 frames
Codec ID : avc1
Codec ID/Info : Advanced Video Coding
Duration : 1 h 15 min
Bit rate : 4 731 kb/s
Width : 1 920 pixels
Height : 1 080 pixels
Display aspect ratio : 16:9
Frame rate mode : Constant
Frame rate : 24.000 FPS
Color space : YUV
Chroma subsampling : 4:2:0
Bit depth : 8 bits
Scan type : Progressive
Bits/(Pixel*Frame) : 0.095
Stream size : 2.49 GiB (95%)
Writing library : x264 core 164 r10 d9a19f0
Encoding settings : cabac=1 / ref=5 / deblock=1:0:0 / analyse=0x3:0x113 / me=hex / subme=8 / psy=1 / psy_rd=1.00:0.00 / mixed_ref=1 / me_range=16 / chroma_me=1 / trellis=2 / 8x8dct=1 / cqm=0 / deadzone=21,11 / fast_pskip=1 / chroma_qp_offset=-2 / threads=34 / lookahead_threads=5 / sliced_threads=0 / nr=0 / decimate=1 / interlaced=0 / bluray_compat=0 / stitchable=1 / constrained_intra=0 / bframes=3 / b_pyramid=2 / b_adapt=2 / b_bias=0 / direct=3 / weightb=1 / open_gop=0 / weightp=2 / keyint=infinite / keyint_min=24 / scenecut=40 / intra_refresh=0 / rc_lookahead=50 / rc=crf / mbtree=1 / crf=20.0 / qcomp=0.60 / qpmin=5 / qpmax=69 / qpstep=4 / vbv_maxrate=5500 / vbv_bufsize=15000 / crf_max=0.0 / nal_hrd=none / filler=0 / ip_ratio=1.40 / aq=1:1.00
Color range : Limited
Color primaries : BT.709
Transfer characteristics : BT.709
Matrix coefficients : BT.709

Audio
ID : 2
Format : AAC
Format/Info : Advanced Audio Codec
Format profile : LC
Codec ID : 40
Duration : 1 h 15 min
Bit rate mode : Constant
Bit rate : 253 kb/s
Channel(s) : 2 channels
Channel positions : Front: L R
Sampling rate : 48.0 kHz
Frame rate : 46.875 FPS (1024 spf)
Compression mode : Lossy
Stream size : 136 MiB (5%)
Default : Yes
Alternate group : 1
Comentario de Eddie Constanti:

Claro, uno lee la sinopsis y piensa que se encontrará con un drama psicosocial con profundas vicisitudes de los personajes y una carga de crítica considerable. Dejadme, sin embargo, que lo reconvierta en algo más llevadero. Veamos, Hélène ve morir a su amado, un aviador, cuando se estrella con su avioneta en una pruebla aérea. Desde entonces, Hélène no sale de casa y no quiere ver a nadie, ni mucho menos tener el más ligero contacto con un hombre. Más tarde, decide hacerse aviadora. ¿Por qué? Ni se sabe, ni nos lo explican. Ella dice que allí, en las nubes, si mira hacia el disco solar ve reflejada la efigie de su difunto amor. Vale, nos lo creemos.

Andréani tiene buen gusto con los escenarios y sus encuadres son milimétricamente exquisitos. Los intérpretes están correctos. Por allí anda Charles Vanel con treinta y un años (aunque tiene la misma apariencia que a los cincuenta) y también Mary Harald, la sensible Tih Minh de Feuillade (pero aquí es una arpía insufrible). Sin embargo los enigmas del guión se mantienen y aumentan. ¿Por qué no permite Hélène que la besen en la mano? Hacia el final (¿falta metraje?) todo se acelera y vemos incendios de aviones, heridos bajo las alas y reconciliaciones de Hélène con el prota. Por cierto, "el chico", a pesar de estrellarse con su avioneta y ser llevado al hospital para que le venden la cabeza, "no recibe daños mayores porque es un atleta moderno" (véanse los intertítulos).

Bien, ya sabéis lo que os espera. La película no os pesará. Tiene virtudes visuales para manteneros atentos durante la hora y cuarto que dura su metraje. Otra cosa es que sepáis descifrar las mil lagunas que deja abiertas el guión. Si lo conseguís, abrid vuestro corazón en este mismo hilo.

Subtítulos en español de Eddie Constanti:

https://www.opensubtitles.org/es/subtit ... re-aile-es

ed2k linkL'autre aile (Henri Andréani, 1923) HD 1080p VOSE ed2k link stats

:D

Responder