The Lost World (Harry O. Hoyt, 1925) HD 1080p VOSE

La edad de la Pantalla de Plata. Publica y encuentra enlaces p2p de filmes silentes (desde los albores del Cine hasta los años 30) en esta sección.
Responder
Avatar de Usuario
baldomp
Mensajes: 473
Registrado: Mar 15 Ago, 2017 12:55

The Lost World (Harry O. Hoyt, 1925) HD 1080p VOSE

Mensaje por baldomp » Mar 24 Nov, 2020 19:37


durante más de 80 años, sólo había versiones recortadas...¡hasta ahora!


01:44:13


The lost world (1925)

Imagen
Imagen
Datos
  • Título original: The Lost World
  • Año: 1925
  • Duración: 106 min
  • País: Estados Unodos
  • Director: Harry O. Hoyt
  • Guión: Marion Fairfax (Novela: Arthur Conan Doyle)
  • Música: Score: Robert Israel, R.J. Miller, Cecil Copping (Película muda)
  • Reparto:
    • Bessie Lowe
    • Lewis Stone
    • Wallace Beery
    • Lloyd Hughes
    • Alma Bennet
  • Productora: First National Picture
  • datos técnicos:
    • Formato: 35mm
    • Optica: Spherical
    • Color: B/N (tambien hay versiones coloreadas a mano)
    • Audio
    • AR: 1.33:1
  • Notas:
  • Distintas duraciones según versión/restauración: 110/106/103/93/64 minutos

Sinopsis.
Una expedición científica británica viaja a una remota meseta de la selva brasileña. Allí encuentran hombres prehistóricos y toda clase de dinosaurios en esta adaptación de la famosa novela de Sir Arthur Conan Doyle.(FILMAFFINITY)
Decenas de películas, algún que otro telefilm y series de televisión, podeis encontrar de la narración de Conan Doyle. Eso sin contar su uso como parte de otra película o capítulo concreto de serie televisiva (sin ir más lejos, el Jurasic Park de 1997 AKA The Lost World: Jurassic Park.

La versión de 1925, considerada el primer largometraje que usaba 'stop motion', se filmaba escásamente 13 años tras la edición de la novela del autor de Holmes. Como curiosidad... hay un cameo del propio Conan Doyle al principio del film.

Era época de diferentes tesis y tendencias evolutivas. Sin embargo, curiosamente la película presenta muchos puntos aceptados actualmente respecto a estas líneas de pensamiento.

"Acertado-equivocado" (Basado en la sección "Trivia" de la ficha IMDB)

«... La película fue bastante progresista con su descripción de los dinosaurios como habitantes activos de la tierra. Muchos científicos y artistas de la época pensaban en los dinosaurios como errores evolutivos lentos y tontos... debído en parte a la noción ampliamente aceptada de ortogénesis, una creencia antigua de que la evolución se dirige hacia un objetivo establecido: los humanos y que por ello, las criaturas más viejas serían "imperfectas".

Aquí, los dinosaurios como Brontosaurus se muestran correctamente pisando en tierra firme. También se muestra a los triceratops cuidando a sus crías, teoría que solo ganó una amplia aceptación medio siglo después.

A pesar de sus ideas progresistas, la película también ayudó a difundir otra falsa creencia sobre los dinosaurios: la idea de que estaban constantemente hambrientos y eran agresivos. Este comportamiento monstruoso influiría en las representaciones de dinosaurios en el arte, las películas y los programas de televisión durante el siglo siguiente...»


La fuente.
ISO Bluray de Flicker Alley conteniendo la recuperación/restauración de 10 rollos finalizada en 2016.

Vídeo: H264 Slowest. Aunque hay múltiples rayas del uso, intentando preservar su integridad (tras batería de comparaciones)

Audio:
  • Score:AAC (Fraunhofer FHG, VBR) del LPCM stereo del BluRay. Score "performado" :mrgreen: por The Robert Israel Orchestra (2016)
  • Comentarios:AC3 original ("Passthroungh") de la pista de comentarios de Nicolas Ciccone, historiador cinematográfico y cineasta amateur (No hay subtítulos)
Subtítulos:
  • Castellano:Subtítulos propios, traducidos de intertítulos.


Imagen
Spoiler: mostrar

Imagen

26 de Noviembre de 1927, luego estreno el 28/11/1927 (solicitada alta en IMDB :mrgreen: )

Imagen


Imagen




Stream

Código: Seleccionar todo

Format                                   : Matroska
Format version                           : Version 4
File size                                : 8.36 GiB
Duration                                 : 1 h 44 min
Overall bit rate                         : 11.5 Mb/s
Encoded date                             : UTC 2020-11-24 17:56:40
Writing application                      : mkvmerge v34.0.0 ('Sight and Seen') 64-bit
Writing library                          : libebml v1.3.7 + libmatroska v1.5.0

Video
ID                                       : 1
Format                                   : AVC
Format/Info                              : Advanced Video Codec
Format profile                           : Main@L4
Format settings                          : CABAC / 4 Ref Frames
Format settings, CABAC                   : Yes
Format settings, Reference frames        : 4 frames
Codec ID                                 : V_MPEG4/ISO/AVC
Duration                                 : 1 h 44 min
Bit rate                                 : 10.8 Mb/s
Width                                    : 1 420 pixels
Height                                   : 1 068 pixels
Display aspect ratio                     : 4:3
Frame rate mode                          : Constant
Frame rate                               : 23.976 (24000/1001) FPS
Color space                              : YUV
Chroma subsampling                       : 4:2:0
Bit depth                                : 8 bits
Scan type                                : Progressive
Bits/(Pixel*Frame)                       : 0.298
Stream size                              : 7.90 GiB (94%)
Title                                    : Te lost world.1925.baldomp
Writing library                          : x264 core 157 r2935 545de2f
Encoding settings                        : cabac=1 / ref=3 / deblock=1:0:0 / analyse=0x1:0x111 / me=hex / subme=7 / psy=1 / psy_rd=1.00:0.00 / mixed_ref=1 / me_range=16 / chroma_me=1 / trellis=1 / 8x8dct=0 / cqm=0 / deadzone=21,11 / fast_pskip=1 / chroma_qp_offset=-2 / threads=6 / lookahead_threads=1 / sliced_threads=0 / nr=0 / decimate=1 / interlaced=0 / bluray_compat=0 / constrained_intra=0 / bframes=3 / b_pyramid=2 / b_adapt=1 / b_bias=0 / direct=1 / weightb=1 / open_gop=0 / weightp=2 / keyint=240 / keyint_min=24 / scenecut=40 / intra_refresh=0 / rc_lookahead=40 / rc=crf / mbtree=1 / crf=19.0 / qcomp=0.60 / qpmin=0 / qpmax=69 / qpstep=4 / vbv_maxrate=20000 / vbv_bufsize=25000 / crf_max=0.0 / nal_hrd=none / filler=0 / ip_ratio=1.40 / aq=1:1.00
Default                                  : Yes
Forced                                   : Yes
Color range                              : Limited
Color primaries                          : BT.709
Transfer characteristics                 : BT.709
Matrix coefficients                      : BT.709

Audio #1
ID                                       : 2
Format                                   : AAC LC
Format/Info                              : Advanced Audio Codec Low Complexity
Codec ID                                 : A_AAC-2
Duration                                 : 1 h 44 min
Bit rate                                 : 192 kb/s
Channel(s)                               : 2 channels
Channel layout                           : L R
Sampling rate                            : 48.0 kHz
Frame rate                               : 46.875 FPS (1024 SPF)
Compression mode                         : Lossy
Delay relative to video                  : 9 ms
Stream size                              : 142 MiB (2%)
Title                                    : Score: The Robert Israel Orchestra (Stereo, 2016)
Default                                  : Yes
Forced                                   : Yes

Audio #2
ID                                       : 3
Format                                   : AC-3
Format/Info                              : Audio Coding 3
Commercial name                          : Dolby Digital
Codec ID                                 : A_AC3
Duration                                 : 1 h 44 min
Bit rate mode                            : Constant
Bit rate                                 : 448 kb/s
Channel(s)                               : 2 channels
Channel layout                           : L R
Sampling rate                            : 48.0 kHz
Frame rate                               : 31.250 FPS (1536 SPF)
Compression mode                         : Lossy
Stream size                              : 334 MiB (4%)
Title                                    : Audiocommentary (Nicolas Ciccone, ENG)
Language                                 : English
Service kind                             : Complete Main
Default                                  : No
Forced                                   : No

Text
ID                                       : 4
Format                                   : UTF-8
Codec ID                                 : S_TEXT/UTF8
Codec ID/Info                            : UTF-8 Plain Text
Duration                                 : 1 h 43 min
Bit rate                                 : 19 b/s
Count of elements                        : 253
Stream size                              : 14.5 KiB (0%)
Title                                    : Spanish (Intertítulos)
Language                                 : Spanish
Default                                  : Yes
Forced                                   : Yes


Capturas.
Imagen

Imagen

Imagen

Imagen

Imagen

Imagen

El Enlace.

ed2k linkThe lost world.El mundo perdido (H. Hoyt 1925) Restored 2K BDRip Silente(Score) Intertit(SPA)+Audiocomentarios(ENG).mkv ed2k link stats



Gracias.
De nuevo, muchas gracias a quienes comparten, difunden y posibilitan que el CINE (así, en mayúsculas) llegue a todos.

Última edición por baldomp el Mar 24 Nov, 2020 21:53, editado 2 veces en total.

ostrata
Mensajes: 2411
Registrado: Mié 24 Mar, 2010 17:29

Re: The lost world. El mundo perdido (Harry Hoyt 1925) HD 1080p VOSE

Mensaje por ostrata » Mar 24 Nov, 2020 21:24

Gracias, baldomp. :)

Saludos.

Avatar de Usuario
Jacob
Exprópiese
Mensajes: 9965
Registrado: Jue 01 Jul, 2004 02:00
Ubicación: Where no one has gone before!

Re: The Lost World (Harry O. Hoyt, 1925) HD 1080p VOSE

Mensaje por Jacob » Mar 24 Nov, 2020 22:35

Esta película es estupenda, me encantó cuando la vi. Así que me la bajo para volverla a ver en el futuro.

Magnífico ripeo, baldomp, gracias. :yes:

Avatar de Usuario
janca
Mensajes: 2236
Registrado: Dom 20 Dic, 2009 09:31

Re: The Lost World (Harry O. Hoyt, 1925) HD 1080p VOSE

Mensaje por janca » Mié 25 Nov, 2020 07:14

Muchas gracias Baldomp

Avatar de Usuario
Spanish Jhonny
Mensajes: 3221
Registrado: Mar 18 Sep, 2012 16:01

Re: The Lost World (Harry O. Hoyt, 1925) HD 1080p VOSE

Mensaje por Spanish Jhonny » Mar 01 Dic, 2020 09:17

Me apunto.
Muchas gracias ;) :plas: :plas: :plas:
Saludos.

bolzato
Mensajes: 181
Registrado: Vie 14 Sep, 2012 16:36

Re: The Lost World (Harry O. Hoyt, 1925) HD 1080p VOSE

Mensaje por bolzato » Dom 06 Dic, 2020 12:04

Muchas gracias, Baldomp.

Avatar de Usuario
paizoco
Mensajes: 2845
Registrado: Vie 21 Nov, 2003 01:00
Ubicación: Far West

Re: The Lost World (Harry O. Hoyt, 1925) HD 1080p VOSE

Mensaje por paizoco » Lun 07 Dic, 2020 10:14

Me apunto, muchas gracias.

xos
Mensajes: 52
Registrado: Sab 12 Abr, 2003 02:00

Re: The Lost World (Harry O. Hoyt, 1925) HD 1080p VOSE

Mensaje por xos » Sab 17 Abr, 2021 16:05

Descargando.....Gracias.

ziffel39
Mensajes: 1
Registrado: Dom 21 Jul, 2019 13:34

Re: The Lost World (Harry O. Hoyt, 1925) HD 1080p VOSE

Mensaje por ziffel39 » Dom 18 Jul, 2021 12:41

Gracias.

Juanal
Mensajes: 3
Registrado: Vie 22 Oct, 2021 17:47

Re: The Lost World (Harry O. Hoyt, 1925) HD 1080p VOSE

Mensaje por Juanal » Vie 22 Oct, 2021 18:05

Gracias, baldomp.

Responder