The Last Performance (Pál Fejös, 1927) BRRip VOSE

La edad de la Pantalla de Plata. Publica y encuentra enlaces p2p de filmes silentes (desde los albores del Cine hasta los años 30) en esta sección.
Responder
Avatar de Usuario
batallans
Video Killed The Radio Star
Mensajes: 1159
Registrado: Sab 19 May, 2007 12:12

The Last Performance (Pál Fejös, 1927) BRRip VOSE

Mensaje por batallans » Sab 08 Sep, 2012 13:04

T h e
L a s t
P e r f o r m a n c e



Imagen



Dirección
Pál Fejös

Guión
James Ashmore Creelman

Música
Sam Perry

Fotografía
Hal Mohr

Montaje
Edward L. Cahn
Robert Carlisle
Robert Jahns

Dirección artística
Charles D. Hall
Thomas F. O'Neill


Cast:

Conrad Veidt ... Erik the Great
Mary Philbin ... Julie
Leslie Fenton ... Buffo
Fred MacKaye ... Mark Royce
Gusztáv Pártos ... Gerente del teatro
William H. Turner ... Booking Agent
Anders Randolf ... Juez
Sam De Grasse ... Fiscal
George Irving ... Abogado defensor


Un mago de mediana edad se enamora de su joven y hermosa asistenta. Ella, por su parte, está enamorada del joven protegido del mago, que resulta ser un vagabundo y un ladrón.


imdb

Código: Seleccionar todo

General 
Complete name : the.last.performance.1927.720p.bluray.x264-geckos.mkv 
Format : Matroska 
Format version : Version 2 
File size : 2.19 GiB 
Duration : 59mn 32s 
Overall bit rate : 5 257 Kbps 
Writing application : mkvmerge v4.1.1 ('Bouncin' Back') built on Jul 3 2010 22:54:08 
Writing library : libebml v1.0.0 + libmatroska v1.0 

Video 
ID : 1 
Format : AVC 
Format/Info : Advanced Video Codec 
Format profile : High@L4.1 
Format settings, CABAC : Yes 
Format settings, ReFrames : 5 frames 
Codec ID : V_MPEG4/ISO/AVC 
Duration : 59mn 32s 
Bit rate : 5 062 Kbps 
Width : 960 pixels 
Height : 720 pixels 
Display aspect ratio : 4:3 
Frame rate : 23.976 fps 
Color space : YUV 
Chroma subsampling : 4:2:0 
Bit depth : 8 bits 
Scan type : Progressive 
Bits/(Pixel*Frame) : 0.305 
Stream size : 2.06 GiB (94%) 
Writing library : x264 core 125 r2208 d9d2288 
Encoding settings : cabac=1 / ref=5 / deblock=1:0:0 / analyse=0x3:0x133 / me=umh / subme=7 / psy=1 / psy_rd=1.00:0.00 / mixed_ref=1 / me_range=16 / chroma_me=1 / trellis=1 / 8x8dct=1 / cqm=0 / deadzone=21,11 / fast_pskip=0 / chroma_qp_offset=-2 / threads=12 / lookahead_threads=2 / sliced_threads=0 / nr=0 / decimate=1 / interlaced=0 / bluray_compat=0 / constrained_intra=0 / bframes=3 / b_pyramid=2 / b_adapt=1 / b_bias=0 / direct=1 / weightb=1 / open_gop=0 / weightp=2 / keyint=250 / keyint_min=23 / scenecut=40 / intra_refresh=0 / rc_lookahead=40 / rc=2pass / mbtree=1 / bitrate=5062 / ratetol=1.0 / qcomp=0.60 / qpmin=0 / qpmax=69 / qpstep=4 / cplxblur=20.0 / qblur=0.5 / ip_ratio=1.40 / aq=1:1.00 
Language : English 
Default : Yes 
Forced : No 

Audio 
ID : 2 
Format : AC-3 
Format/Info : Audio Coding 3 
Mode extension : CM (complete main) 
Format settings, Endianness : Big 
Codec ID : A_AC3 
Duration : 59mn 32s 
Bit rate mode : Constant 
Bit rate : 192 Kbps 
Channel(s) : 2 channels 
Channel positions : Front: L R 
Sampling rate : 48.0 KHz 
Bit depth : 16 bits 
Compression mode : Lossy 
Stream size : 81.8 MiB (4%) 
Title : Silent 
Language : Danish 
Default : Yes 
Forced : No 

Text 
ID : 3 
Format : UTF-8 
Codec ID : S_TEXT/UTF8 
Codec ID/Info : UTF-8 Plain Text 
Language : English 
Default : No 
Forced : No

Imagen
Imagen
Imagen
Imagen
Imagen
Imagen
Imagen
Imagen
Imagen
Imagen
Imagen
Imagen
Imagen
Imagen
Imagen
Imagen


Subtítulos en castellano cortesía del prof. Keller:

http://www.subdivx.com/X6XMjk3OTUxX-the ... -1927.html




ed2k linkthe.last.performance.1927.720p.bluray.x264-geckos.mkv ed2k link stats

Avatar de Usuario
Ottto
Mensajes: 1007
Registrado: Dom 19 Dic, 2004 01:00
Ubicación: Asturluña

Re: The Last Performance (Pál Fejös, 1927) BRRip VOSE

Mensaje por Ottto » Sab 08 Sep, 2012 15:06

Muchas gracias, batallans.

Avatar de Usuario
gatatitania
Mensajes: 1237
Registrado: Mié 23 Dic, 2009 22:21

Re: The Last Performance (Pál Fejös, 1927) BRRip VOSE

Mensaje por gatatitania » Sab 08 Sep, 2012 17:06

¡Gracias, batallans y professor! :D :D :D

filmoteca
Mensajes: 7
Registrado: Mié 15 Dic, 2010 10:36

Re: The Last Performance (Pál Fejös, 1927) BRRip VOSE

Mensaje por filmoteca » Sab 08 Sep, 2012 18:24

Muchas gracias batallans. Ya está cerca Soledad de Criterion. Gracias de nuevo.

Avatar de Usuario
professor keller
Mensajes: 1899
Registrado: Jue 27 Ene, 2005 01:00
Ubicación: Buenos Aires

Re: The Last Performance (Pál Fejös, 1927) BRRip VOSE

Mensaje por professor keller » Dom 09 Sep, 2012 05:15

Gracias por emulizarla, batallans :wink:

hoboken71
Mensajes: 53
Registrado: Vie 10 Oct, 2008 10:35

Re: The Last Performance (Pál Fejös, 1927) BRRip VOSE

Mensaje por hoboken71 » Dom 09 Sep, 2012 09:25

Muchas Gracias.

Avatar de Usuario
kenobi
Mensajes: 1022
Registrado: Mié 30 Oct, 2002 01:00
Ubicación: Gran Puñeta

Re: The Last Performance (Pál Fejös, 1927) BRRip VOSE

Mensaje por kenobi » Lun 10 Sep, 2012 18:02

Por lo que he podido leer, viene incluida en el Bluray de Criterion de Lonesome cosa que desconocía. Pues muchísimas gracias por traerla.

Saludos.
Imagen

Avatar de Usuario
JGUTII
Mensajes: 87
Registrado: Sab 30 Ene, 2010 23:23

Re: The Last Performance (Pál Fejös, 1927) BRRip VOSE

Mensaje por JGUTII » Mié 12 Sep, 2012 06:03

Muchas gracias a los dos, batallans y profe.

Avatar de Usuario
Padre Lizardi
Mensajes: 278
Registrado: Sab 10 Jun, 2006 12:16
Ubicación: del otro lado de la verja

Re: The Last Performance (Pál Fejös, 1927) BRRip VOSE

Mensaje por Padre Lizardi » Vie 14 Sep, 2012 15:42

Gracias batallans y professor. A Lange le saco una de güisqui del bueno, que en la iglesia andamos un poco escasos de cuartos.

kabuki
Mensajes: 269
Registrado: Dom 03 Oct, 2004 02:00

Re: The Last Performance (Pál Fejös, 1927) BRRip VOSE

Mensaje por kabuki » Vie 14 Sep, 2012 16:17

Da gusto ver que gota a gota se sacia la sed de todos los que nos gusta el cine silente.
Muchas gracias,Batallans y Profesor Keller.

Avatar de Usuario
tarkovstalker
Mensajes: 84
Registrado: Dom 11 Abr, 2010 12:23

Re: The Last Performance (Pál Fejös, 1927) BRRip VOSE

Mensaje por tarkovstalker » Vie 14 Sep, 2012 16:18

Muchas gracias, batallans y professor keller.Imagen

pochutla
Mensajes: 607
Registrado: Sab 10 Jun, 2006 22:12

Re: The Last Performance (Pál Fejös, 1927) BRRip VOSE

Mensaje por pochutla » Dom 09 Dic, 2012 13:08

Muchas gracias batallans

ostrata
Mensajes: 2389
Registrado: Mié 24 Mar, 2010 17:29

Re: The Last Performance (Pál Fejös, 1927) BRRip VOSE

Mensaje por ostrata » Dom 19 Sep, 2021 11:09

¿Alguien puede reponerla?

Muchas gracias. :)

Saludos.

ostrata
Mensajes: 2389
Registrado: Mié 24 Mar, 2010 17:29

Re: The Last Performance (Pál Fejös, 1927) BRRip VOSE

Mensaje por ostrata » Lun 20 Sep, 2021 06:40

Completada, gracias. :)

Saludos.

Responder