El Golem (Paul Wegener 1920) HD 1080p VOSE

La edad de la Pantalla de Plata. Publica y encuentra enlaces p2p de filmes silentes (desde los albores del Cine hasta los años 30) en esta sección.
Responder
Avatar de Usuario
baldomp
Mensajes: 311
Registrado: Mar 15 Ago, 2017 12:55

El Golem (Paul Wegener 1920) HD 1080p VOSE

Mensaje por baldomp » Lun 21 Sep, 2020 23:32

.

La mejor versión aquí de este clásico no puede ser un 640x480 entrelazado



El Golem (Paul Wegener y Carl Boese) 1920


Imagen
Ficha
  • Título original: Der Golem, wie er in die Welt kam
  • Año: 1920
  • Duración: 76 min.
  • País: Alemania
  • Dirección: Paul Wegener, Carl Boese
  • Guion: Paul Wegener, Henrik Galeen (Novela: Gustav Meyrinck)
  • Música: Cine silente
  • Reparto:
    • Paul Wegener
    • Albert Steinrück
    • Lyda Salmonova
    • Ernst Deutsch
    • Hans Stürm
    • Max Kronert
    • Otto Gebühr
  • Fotografía: Karl Freund
  • Soporte: 35mm, Optica: 'Spherical'
  • Color:B/N
  • Aspect Ratio: 1:33:1
  • Productora: Projektions-AG Union (PAGU)
  • Género: Fantástico. Terror. Monstruos. Expresionismo alemán. Cine mudo.
Imagen
Sinopsis
En el gueto judío de la Praga del siglo XVI, el rabino Low (Albert Streinruck, Asphalt ) crea un imponente Golem de arcilla (interpretado por el director Paul Wegener) para proteger a su pueblo del tiránico emperador Luhois (Otto Gebuhr). Traído a la vida con un espíritu demoníaco y un amuleto colocado en el centro del pecho de la criatura, el Golem es un monstruo aparentemente indestructible, que realiza actos de gran heroísmo.Pero...



El expresionismo: resultado de una situación
La estética expresionista prefería en el cinematógrafo (y en otras artes) temas fantásticos y de terror. Y se alimentaba en múltiples ocasiones de la literatura romántica de la época.

De este modo, asesinos, vampiros, tiranos, fantasmas... aparecían en sucesión de historias angustiosas, que hay quien no puede dejar de relacionar con el estado anímico, social, de la república de Weimar (que acabaría en lo que ya sabemos)

En cualquier caso, esa época y en ese lugar nos ha dejado obras ("El gabinete del doctor Caligari","Metrópolis","Nosferatu") que forman parte de un movimiento muy profundo. Profundidad que sería relevada más adelante por tendencias más tendentes al naturalismo y a una fantasía menos anímica y más científica.

Es cine, en cualquier caso, de hace 100 años. Mis reverencias...


La restauración
Aunque hay un "montaje americano" de 60 minutos, el que os presento lo he extractado del del BluRay de "Masters of Cinema" que procede realmente de dos negativos originales:
  • El negativo del montaje para el mercado alemán, cuyo escaneo y restauración finalizó en 2017 por parte de la Fundación Friedrich Wilhelm Murnau y Cinematek
  • El montaje para la exibición en otros países , restaurado por la cooperación de varias entidades y universidades (Bolonia, Munich...)


La restauración, sobre un escaneo, 4K ha hecho aflorar del negativo un detalle, una gradación de grises y una profundidad que no era notoria en presentaciones anteriores. A diferencia del montaje americano, se han conservado los tintes que pudieran presentarse.
Imagen
Como curiosidad, al realizarse las tomas dobles con con dos cámaras en paralelo (¡claro!... por eso hay dos negatívos :) ) se disponía, para la selección de la mejor, de dos perspectivas para la misma escena:
Imagen

Imagen
Spoiler: mostrar
Imagen

Imagen

Imagen

Imagen
15 semanas en proyección, record de resultados...

Imagen
... la indudable infuencia


Capturas
Imagen

Imagen

Imagen

Imagen

Imagen




Datos MKV

Código: Seleccionar todo

Format                                   : Matroska
Format version                           : Version 4
File size                                : 5.28 GiB
Duration                                 : 1 h 16 min
Overall bit rate                         : 9 922 kb/s
Encoded date                             : UTC 2020-09-21 20:52:34
Writing application                      : mkvmerge v34.0.0 ('Sight and Seen') 64-bit
Writing library                          : libebml v1.3.7 + libmatroska v1.5.0

Video
ID                                       : 1
Format                                   : AVC
Format/Info                              : Advanced Video Codec
Format profile                           : Main@L4
Format settings                          : CABAC / 4 Ref Frames
Format settings, CABAC                   : Yes
Format settings, Reference frames        : 4 frames
Codec ID                                 : V_MPEG4/ISO/AVC
Duration                                 : 1 h 16 min
Bit rate                                 : 9 261 kb/s
Width                                    : 1 440 pixels
Height                                   : 1 080 pixels
Display aspect ratio                     : 4:3
Frame rate mode                          : Constant
Frame rate                               : 23.976 (24000/1001) FPS
Color space                              : YUV
Chroma subsampling                       : 4:2:0
Bit depth                                : 8 bits
Scan type                                : Progressive
Bits/(Pixel*Frame)                       : 0.248
Stream size                              : 4.93 GiB (93%)
Writing library                          : x264 core 157 r2935 545de2f
Encoding settings                        : cabac=1 / ref=3 / deblock=1:0:0 / analyse=0x1:0x111 / me=hex / subme=7 / psy=1 / psy_rd=1.00:0.00 / mixed_ref=1 / me_range=16 / chroma_me=1 / trellis=1 / 8x8dct=0 / cqm=0 / deadzone=21,11 / fast_pskip=1 / chroma_qp_offset=-2 / threads=6 / lookahead_threads=1 / sliced_threads=0 / nr=0 / decimate=1 / interlaced=0 / bluray_compat=0 / constrained_intra=0 / bframes=3 / b_pyramid=2 / b_adapt=1 / b_bias=0 / direct=1 / weightb=1 / open_gop=0 / weightp=2 / keyint=240 / keyint_min=24 / scenecut=40 / intra_refresh=0 / rc_lookahead=40 / rc=crf / mbtree=1 / crf=19.0 / qcomp=0.60 / qpmin=0 / qpmax=69 / qpstep=4 / vbv_maxrate=20000 / vbv_bufsize=25000 / crf_max=0.0 / nal_hrd=none / filler=0 / ip_ratio=1.40 / aq=1:1.00
Default                                  : Yes
Forced                                   : Yes
Color range                              : Limited
Color primaries                          : BT.709
Transfer characteristics                 : BT.709
Matrix coefficients                      : BT.709

Audio #1
ID                                       : 2
Format                                   : AAC LC
Format/Info                              : Advanced Audio Codec Low Complexity
Codec ID                                 : A_AAC-2
Duration                                 : 1 h 16 min
Bit rate                                 : 219 kb/s
Channel(s)                               : 2 channels
Channel layout                           : L R
Sampling rate                            : 48.0 kHz
Frame rate                               : 46.875 FPS (1024 SPF)
Compression mode                         : Lossy
Stream size                              : 120 MiB (2%)
Title                                    : Score 1 (Stephen Horne)
Default                                  : Yes
Forced                                   : Yes

Audio #2
ID                                       : 3
Format                                   : AAC LC
Format/Info                              : Advanced Audio Codec Low Complexity
Codec ID                                 : A_AAC-2
Duration                                 : 1 h 16 min
Bit rate                                 : 220 kb/s
Channel(s)                               : 2 channels
Channel layout                           : L R
Sampling rate                            : 48.0 kHz
Frame rate                               : 46.875 FPS (1024 SPF)
Compression mode                         : Lossy
Stream size                              : 120 MiB (2%)
Title                                    : Score 2 (Wudec)
Default                                  : No
Forced                                   : No

Audio #3
ID                                       : 4
Format                                   : AAC LC
Format/Info                              : Advanced Audio Codec Low Complexity
Codec ID                                 : A_AAC-2
Duration                                 : 1 h 16 min
Bit rate                                 : 218 kb/s
Channel(s)                               : 2 channels
Channel layout                           : L R
Sampling rate                            : 48.0 kHz
Frame rate                               : 46.875 FPS (1024 SPF)
Compression mode                         : Lossy
Stream size                              : 119 MiB (2%)
Title                                    : Score 3 (Admir Shkurtaj)
Default                                  : No
Forced                                   : No

Text #1
ID                                       : 5
Format                                   : UTF-8
Codec ID                                 : S_TEXT/UTF8
Codec ID/Info                            : UTF-8 Plain Text
Duration                                 : 1 h 15 min
Bit rate                                 : 12 b/s
Count of elements                        : 165
Stream size                              : 7.11 KiB (0%)
Title                                    : Castellano (Intertítulos)
Default                                  : Yes
Forced                                   : Yes

Text #2
ID                                       : 6
Format                                   : UTF-8
Codec ID                                 : S_TEXT/UTF8
Codec ID/Info                            : UTF-8 Plain Text
Duration                                 : 1 h 15 min
Bit rate                                 : 12 b/s
Count of elements                        : 166
Stream size                              : 6.86 KiB (0%)
Title                                    : English
Default                                  : No
Forced                                   : No


Fuentes
  • Video: Imagen de Bluray, eliminación de bordes y codificación ("film", Slowest, CRF19).
  • Audio 1 : AAC. Score (Stephen Horne)
  • Audio 2 : AAC. Score (Wudec)
  • Audio 3 : AAC. Score (Admir Shkurtaj)
  • Subtítulos (SPA): Intertítulos, traducidos desde subs ENG.
  • Subtítulos (ENG): OCR de subtítulos en inglés.
Enlace

The Golem (Paul Wegener, 1920) restored 4K (1080p) VO (Silente) (German) Subs(SPA-ENG).mkv

Última edición por baldomp el Jue 24 Sep, 2020 08:12, editado 3 veces en total.

Avatar de Usuario
Jacob
Exprópiese
Mensajes: 9706
Registrado: Jue 01 Jul, 2004 02:00
Ubicación: Where no one has gone before!

Re: El Golem (Paul Wegener 1920) HD 1080p VOSE

Mensaje por Jacob » Lun 21 Sep, 2020 23:53

¡Muchas gracias, baldomp!

Avatar de Usuario
paizoco
Mensajes: 2740
Registrado: Vie 21 Nov, 2003 01:00
Ubicación: Far West

Re: El Golem (Paul Wegener 1920) HD 1080p VOSE

Mensaje por paizoco » Mar 22 Sep, 2020 00:06

Me apunto, muchas gracias.

Avatar de Usuario
toerless
Mensajes: 216
Registrado: Lun 24 Nov, 2003 01:00

Re: El Golem (Paul Wegener 1920) HD 1080p VOSE

Mensaje por toerless » Mar 22 Sep, 2020 03:01

También traduje directamente los intertítulos alemanes en su día y los subí aquí:

https://subscene.com/subtitles/der-gole ... sh/2009139

Ahora veo que un espabilado, fusilándolos, los volvió a subir cuatro meses más tarde, adjudicándose la autoría.

Avatar de Usuario
arthureld
Mensajes: 1367
Registrado: Sab 01 Oct, 2005 02:00
Ubicación: En La Torre Oscura

Re: El Golem (Paul Wegener 1920) HD 1080p VOSE

Mensaje por arthureld » Mar 22 Sep, 2020 14:40

¡Qué buena pinta! En su día me leí la novela de Gustav Meyrink, que por lo que parece solo tienen en común el mismo golem y para de contar. La novela me pareció insufrible, pero supongo que no me cogería en un buen momento o yo qué sé. La peli no la he visto, así que mejor de esta manera.
Muchas gracias por el rip.

Avatar de Usuario
Forrest Gump
Mensajes: 1551
Registrado: Vie 18 May, 2007 18:06
Ubicación: Zihuatanejo

Re: El Golem (Paul Wegener 1920) HD 1080p VOSE

Mensaje por Forrest Gump » Vie 25 Sep, 2020 06:40

Esto no se puede dejar pasar. ¡Muchas gracias, baldomp! :plas:
Made it, Ma, top of the world!

Avatar de Usuario
miguel_HammerFilms
Mensajes: 1282
Registrado: Vie 18 May, 2007 11:23

Re: El Golem (Paul Wegener 1920) HD 1080p VOSE

Mensaje por miguel_HammerFilms » Vie 25 Sep, 2020 21:19

arthureld escribió:
Mar 22 Sep, 2020 14:40
¡Qué buena pinta! En su día me leí la novela de Gustav Meyrink, que por lo que parece solo tienen en común el mismo golem y para de contar. La novela me pareció insufrible, pero supongo que no me cogería en un buen momento o yo qué sé. La peli no la he visto, así que mejor de esta manera.
Muchas gracias por el rip.
Tuve la misma experiencia cuando leí la novela hace años (:-) (:-)

Vamos a probar con la peli, que no la he visto. Gracias baldo :D
Imagen

Avatar de Usuario
Pasanen
Mensajes: 346
Registrado: Sab 10 Jun, 2006 00:00

Re: El Golem (Paul Wegener 1920) HD 1080p VOSE

Mensaje por Pasanen » Sab 26 Sep, 2020 10:39

Muchas gracias baldomp

Avatar de Usuario
castleaco
Mensajes: 172
Registrado: Vie 18 Abr, 2014 10:14

Re: El Golem (Paul Wegener 1920) HD 1080p VOSE

Mensaje por castleaco » Sab 26 Sep, 2020 12:22

Gracias baldomp!

Avatar de Usuario
miguel_HammerFilms
Mensajes: 1282
Registrado: Vie 18 May, 2007 11:23

Re: El Golem (Paul Wegener 1920) HD 1080p VOSE

Mensaje por miguel_HammerFilms » Mié 07 Oct, 2020 20:49

A mí que me suele costar mucho el silente, con el audio 2 se me ha pasado volando. Supongo que no es lo más purista, pero me ha ayudado a meterme en la peli más que las músicas originales. Tengo que mirar a ver si esto lo hacen para más silentes... :oops:
Imagen

Avatar de Usuario
Jacob
Exprópiese
Mensajes: 9706
Registrado: Jue 01 Jul, 2004 02:00
Ubicación: Where no one has gone before!

Re: El Golem (Paul Wegener 1920) HD 1080p VOSE

Mensaje por Jacob » Mié 07 Oct, 2020 20:54

miguel_HammerFilms escribió:
Mié 07 Oct, 2020 20:49
Supongo que no es lo más purista, pero me ha ayudado a meterme en la peli más que las músicas originales. Tengo que mirar a ver si esto lo hacen para más silentes... :oops:
Es muy habitual, salvo excepciones de composiciones modernas horripilantes más hechas para lucimiento que para acompañamiento.
En algún caso he tenido que ver la película sin sonido ninguno.

ostrata
Mensajes: 2183
Registrado: Mié 24 Mar, 2010 17:29

Re: El Golem (Paul Wegener 1920) HD 1080p VOSE

Mensaje por ostrata » Mié 07 Oct, 2020 22:07

Gracias. :)

Saludos.

Avatar de Usuario
baldomp
Mensajes: 311
Registrado: Mar 15 Ago, 2017 12:55

Re: El Golem (Paul Wegener 1920) HD 1080p VOSE

Mensaje por baldomp » Jue 08 Oct, 2020 00:12

miguel_HammerFilms escribió:
Mié 07 Oct, 2020 20:49
A mí que me suele costar mucho el silente, con el audio 2 se me ha pasado volando. Supongo que no es lo más purista, pero me ha ayudado a meterme en la peli más que las músicas originales. Tengo que mirar a ver si esto lo hacen para más silentes... :oops:
¡Ya te digo yo que sí!. Prueba aquí mismo, por ejemplo, con "The last command" de von Sternberg. Tiene un Score (el 2), algo jazzístico y "percusionístico" (y un buen guión, y "el cine dentro del cine..." :D )

ostrata
Mensajes: 2183
Registrado: Mié 24 Mar, 2010 17:29

Re: El Golem (Paul Wegener 1920) HD 1080p VOSE

Mensaje por ostrata » Jue 08 Oct, 2020 16:15

baldomp escribió:
Jue 08 Oct, 2020 00:12
miguel_HammerFilms escribió:
Mié 07 Oct, 2020 20:49
A mí que me suele costar mucho el silente, con el audio 2 se me ha pasado volando. Supongo que no es lo más purista, pero me ha ayudado a meterme en la peli más que las músicas originales. Tengo que mirar a ver si esto lo hacen para más silentes... :oops:
¡Ya te digo yo que sí!. Prueba aquí mismo, por ejemplo, con "The last command" de von Sternberg. Tiene un Score (el 2), algo jazzístico y "percusionístico" (y un buen guión, y "el cine dentro del cine..." :D )
Pues yo he decubierto recientemente el placer que me causa verlas sin sonido... :roll:

Saludos. :)

Responder