The Cameraman (Buster Keaton & Edward Sedgwick, 1928) HD 1080p VOSE

La edad de la Pantalla de Plata. Publica y encuentra enlaces p2p de filmes silentes (desde los albores del Cine hasta los años 30) en esta sección.
Responder
Avatar de Usuario
baldomp
Mensajes: 267
Registrado: Mar 15 Ago, 2017 12:55

The Cameraman (Buster Keaton & Edward Sedgwick, 1928) HD 1080p VOSE

Mensaje por baldomp » Jue 03 Sep, 2020 09:57

.

Lanzamiento:16 de junio de 2020: Criterion sigue ayudándonos a redescubrir esas viejas joyas que deberían estar más presentes...

Imagen
Ficha
  • Título original: The cameraman
  • Año: 1928
  • Duración: 76 min.
  • País: Estados Unidos
  • Dirección: Edward Sedgwick, Buster Keaton
  • Guion: Clyde Bruckman, Lew Lipton, Richard Schayer
  • Música: Película muda
  • Fotografía: Elgin Lessley, Reggie Lanning
  • Aspect Ratio: 1:33
  • Reparto: Buster Keaton, Marceline Day, Harry Gribbon, Harold Goodwin, Sidney Bracey...
  • Productora: MGM
  • Género: Comedia (Cine mudo)
Imagen
Sinopsis

Enamorado de una oficinista que trabaja en MGM Studios, un torpe hombre intenta convertirse en camarógrafo para estar cerca de su objeto de deseo. (FILMAFFINITY)

Muda cuando el cine comenzaba a hablar
Buster "carapalo" Keaton fué "Pamplinas" para nuestros abuelos. Dicen que con 4 años ya "trabajaba" con sus padres en el espectáculo "The Three Keatons". "Trabajar" parecía consistir en que su padre lo lanzara desde el escenario hasta el foso de los músicos. Parece ser que hubo una investigación en 1907 y la consecuente prohibien de que actuara, al estimarlo un caso de explotación infantil.

Le tenemos aquí en una obra precursora del "cine dentro del cine". Y una muestra clara de su cariño por el medio, y el respeto a cuanto cámara o fotógrafo, profesional o aficionado, estuvo "ahí" para mostrar, como incipientes documentalistas (de hecho, el film arranca con un cámara en la Primera Gran Guerra...). La película tambien es un canto a la superación, a la insistencia para la consecución de un objetivo.

El cine ya había comenzado a sonar el año anterior ("The Jazz Singer"). A pesar de ello, de lo que por lo visto "sufrió" a causa de los requisitos de trabajar en una gran compañía (y las cortapisas a su creatividad), esta película es "redonda".

Si atendeis al film, vereis que lo de "carapalo" no deja de ser demasiado tajante. keaton no deja de transmitir sensaciones y sentimientos, incluso a través de su rostro. Segun él, "en cuanto un cómico empieza a reír en la pantalla es como si dijese al público que no debe tomarle en serio, que todo eso es una broma" y por ello dotaba a sus personajes de un aspecto circunspecto (incluso se afirma que en algunos contratos directamente se estipulaba que no debía sonreir...)

Imagen
Spoiler: mostrar
Imagen

Imagen

Imagen
la subasta de las "lobby card" de esta película ha alcanzado los 2.000$



Imagen
fotogramas del film en su ubicación en Santa Mónica, CA (Google 2020)



Imagen
El sobrenombre, estandarizado por la prensa para facilidad liguistica del españolito de a pie



Imagen
Un curioso artículo (precisamente agosto de 1929): Tiempos de cambio. El temor a que
el cine hablado no llegara a España tras el cese de las silentes. El doblaje ni se
vislumbraba como una solución técnica



Capturas
Imagen

Imagen

Imagen

Imagen

Imagen


Código: Seleccionar todo

Format                                   : Matroska
Format version                           : Version 4
File size                                : 6.22 GiB
Duration                                 : 1 h 10 min
Overall bit rate                         : 12.6 Mb/s
Encoded date                             : UTC 2020-09-02 21:39:22
Writing application                      : mkvmerge v34.0.0 ('Sight and Seen') 64-bit
Writing library                          : libebml v1.3.7 + libmatroska v1.5.0

Video
ID                                       : 1
Format                                   : AVC
Format/Info                              : Advanced Video Codec
Format profile                           : Main@L4
Format settings                          : CABAC / 4 Ref Frames
Format settings, CABAC                   : Yes
Format settings, Reference frames        : 4 frames
Codec ID                                 : V_MPEG4/ISO/AVC
Duration                                 : 1 h 10 min
Bit rate                                 : 12.4 Mb/s
Width                                    : 1 440 pixels
Height                                   : 1 080 pixels
Display aspect ratio                     : 4:3
Frame rate mode                          : Constant
Frame rate                               : 23.976 (24000/1001) FPS
Color space                              : YUV
Chroma subsampling                       : 4:2:0
Bit depth                                : 8 bits
Scan type                                : Progressive
Bits/(Pixel*Frame)                       : 0.333
Stream size                              : 6.10 GiB (98%)
Writing library                          : x264 core 157 r2935 545de2f
Encoding settings                        : cabac=1 / ref=3 / deblock=1:-1:-1 / analyse=0x1:0x111 / me=hex / subme=7 / psy=1 / psy_rd=1.00:0.15 / mixed_ref=1 / me_range=16 / chroma_me=1 / trellis=1 / 8x8dct=0 / cqm=0 / deadzone=21,11 / fast_pskip=1 / chroma_qp_offset=-3 / threads=6 / lookahead_threads=1 / sliced_threads=0 / nr=0 / decimate=1 / interlaced=0 / bluray_compat=0 / constrained_intra=0 / bframes=3 / b_pyramid=2 / b_adapt=1 / b_bias=0 / direct=1 / weightb=1 / open_gop=0 / weightp=2 / keyint=240 / keyint_min=24 / scenecut=40 / intra_refresh=0 / rc_lookahead=40 / rc=crf / mbtree=1 / crf=19.0 / qcomp=0.60 / qpmin=0 / qpmax=69 / qpstep=4 / vbv_maxrate=20000 / vbv_bufsize=25000 / crf_max=0.0 / nal_hrd=none / filler=0 / ip_ratio=1.40 / aq=1:1.00
Default                                  : Yes
Forced                                   : Yes
Color range                              : Limited
Color primaries                          : BT.709
Transfer characteristics                 : BT.709
Matrix coefficients                      : BT.709

Audio
ID                                       : 2
Format                                   : AAC LC
Format/Info                              : Advanced Audio Codec Low Complexity
Codec ID                                 : A_AAC-2
Duration                                 : 1 h 10 min
Bit rate                                 : 222 kb/s
Channel(s)                               : 2 channels
Channel layout                           : L R
Sampling rate                            : 48.0 kHz
Frame rate                               : 46.875 FPS (1024 SPF)
Compression mode                         : Lossy
Stream size                              : 112 MiB (2%)
Default                                  : Yes
Forced                                   : Yes

Text
ID                                       : 3
Format                                   : UTF-8
Codec ID                                 : S_TEXT/UTF8
Codec ID/Info                            : UTF-8 Plain Text
Duration                                 : 1 h 8 min
Bit rate                                 : 9 b/s
Count of elements                        : 122
Stream size                              : 4.61 KiB (0%)
Title                                    : Castellano (intertítulos)
Language                                 : Spanish
Default                                  : Yes
Forced                                   : Yes


Fuentes
  • Video: BDremux de Blu-ray de Criterion.Restauración 4K conjunta de Criterion,Cineteca de Bolonia y Warner. Finamente "cropado" y codificado ("film", Slowest, CRF19...)
  • Pista "Score" compuesta por Timothy Brock. AAC desde el stereo no comprimido del BR (orchestra of the Teatro Comunale di Bologna)
  • Subtítulos (SPA): De web de subtítulos, alguna recomposición y algún giro no demasiado ... castellano
Enlace

The cameraman (Keaton-Sedgwick.1928) BDRemux 1080p (Subs SPA).mkv

PD

El BR de Criterion contiene otra "feature", que en breve intentaré compartir...

ostrata
Mensajes: 2155
Registrado: Mié 24 Mar, 2010 17:29

Re: The cameraman (Keaton & Sedgwick, 1928) 1080p VOSE

Mensaje por ostrata » Jue 03 Sep, 2020 16:51

Gracias. :)

Saludos.

Avatar de Usuario
Dardo
Arrow Thrower Clown
Mensajes: 16459
Registrado: Dom 19 Oct, 2003 02:00
Ubicación: Entre Encinas y Dolomías

Re: The cameraman (Keaton & Sedgwick, 1928) 1080p VOSE

Mensaje por Dardo » Jue 03 Sep, 2020 19:40

Eso es baldomp, reaparecer y publicar :mrgreen:

Hacía falta este ripio vaya que sí!! :sonrisa:

Avatar de Usuario
Jacob
Exprópiese
Mensajes: 9659
Registrado: Jue 01 Jul, 2004 02:00
Ubicación: Where no one has gone before!

Re: The cameraman (Keaton & Sedgwick, 1928) 1080p VOSE

Mensaje por Jacob » Jue 03 Sep, 2020 20:24

Muchas gracias, baldomp. :yes:

Una de las grandes de Keaton que me falta por ver.

Avatar de Usuario
baldomp
Mensajes: 267
Registrado: Mar 15 Ago, 2017 12:55

Re: The cameraman (Keaton & Sedgwick, 1928) 1080p VOSE

Mensaje por baldomp » Jue 03 Sep, 2020 20:55

¡Gracias!. Esto no hay que acapararlo como un tesoro particular. Esto hay que compartirlo...

Avatar de Usuario
Spanish Jhonny
Mensajes: 2885
Registrado: Mar 18 Sep, 2012 16:01

Re: The Cameraman (Buster Keaton & Edward Sedgwick, 1928) HD 1080p VOSE

Mensaje por Spanish Jhonny » Vie 04 Sep, 2020 08:06

La vi hace poco. Muy buena, con un par de escenas que me parecieron memorables de risa.
Muchas gracias baldomp :plas: :plas:
Saludos

Avatar de Usuario
eulsus
Mensajes: 1283
Registrado: Vie 18 May, 2007 10:41
Ubicación: La Palma

Re: The Cameraman (Buster Keaton & Edward Sedgwick, 1928) HD 1080p VOSE

Mensaje por eulsus » Vie 04 Sep, 2020 12:57

Muy bueno, baldomp. :plas: :plas: :plas:

De haber nacido un par de décadas más tarde hubiéramos tenido al mejor jefe indio de la historia.
Spoiler: mostrar
Por eso de Cara de Palo. (:-)
Imagen
Antonio García-Trevijano Forte (1927-2018)
"Para que yo sea libre, todos tienen que ser libres"

Abstención activa hasta que haya Libertad Colectiva

Avatar de Usuario
paizoco
Mensajes: 2722
Registrado: Vie 21 Nov, 2003 01:00
Ubicación: Far West

Re: The Cameraman (Buster Keaton & Edward Sedgwick, 1928) HD 1080p VOSE

Mensaje por paizoco » Vie 04 Sep, 2020 21:02

Me apunto, muchas gracias.

Avatar de Usuario
Forrest Gump
Mensajes: 1541
Registrado: Vie 18 May, 2007 18:06
Ubicación: Zihuatanejo

Re: The Cameraman (Buster Keaton & Edward Sedgwick, 1928) HD 1080p VOSE

Mensaje por Forrest Gump » Sab 05 Sep, 2020 15:37

Dos regresos dignos de festejo: baldomp publicando y eulsus, por ahora, comentando. :plas: :juas:
Siempre es gratificante mejorar copias de la obra de semejante genio del cine. :P
Made it, Ma, top of the world!

castleaco
Mensajes: 154
Registrado: Vie 18 Abr, 2014 10:14

Re: The Cameraman (Buster Keaton & Edward Sedgwick, 1928) HD 1080p VOSE

Mensaje por castleaco » Mar 08 Sep, 2020 08:05

Muchas gracias, baldomp. Genial aporte.
Mis aportes:
- La amenaza fantasma "versión oscura": viewtopic.php?f=1015&t=72843
- Europa: viewtopic.php?f=1015&t=13050#p898547
- 2010 odisea 2

Responder