Ya viene el cortejo... (Carlos Arévalo, 1939) DVDRip

Espacio destinado a enlaces de obras cinematográficas de caracter documental.
Avatar de Usuario
marlowe62
Stetson dissolutus
Mensajes: 6582
Registrado: Mar 06 Jul, 2004 02:00

Ya viene el cortejo... (Carlos Arévalo, 1939) DVDRip

Mensaje por marlowe62 » Vie 20 Ene, 2012 14:18

Imagen

Ya viene el cortejo...
(España, 1939) [B/N, 11 m.].
Género: Documental dramatizado / Propaganda franquista
IMDb

Ficha técnica.
Dirección: Carlos Arévalo.
Ayudante de dirección: Fortunato Bernal.
Guión: Carlos Arévalo (inspirado en el poema de Rubén Darío "Marcha triunfal", 1895 ).
Fotografía: Cecilio Paniagua (B&W).
Música: Juan Quintero.
Producción: Juan de Orduña.
Producción: Compañía Industrial Film Español S.A. (CIFESA) / Juan de Orduña, P.C.

Narración: Juan de Orduña.
Comentario: Cortometraje que combina imágenes del desfile de la victoria en Madrid, paisajes castellanos, castillos e iglesias y secuencias de ficción de ambientación medieval, hábilmente sincronizadas con el recitado del poema la "Marcha triunfal" de Rubén Darío, con objeto de construir un paralelismo entre las huestes de la Reconquista y las victoriosas tropas franquistas.
"Ensayo que mezcla ficción y documental trazando un paralelismo entre las gestas medievales y la victoria del ejército franquista. La película está hecha tras la victoria del bando nacional (recoge imágenes del desfile de la Victoria en Madrid) y en cierto modo es una vuelta de tuerca más en los delirios imperiales de la mitología falangista" (Vicente Sánchez-Biosca, Cine y Guerra Civil Española. Del mito a la memoria. Madrid, Alianza Editorial, 2006).
- Ciclo: El pasado es el destino: Guerra Civil y cine (junio 2011). Filmoteca Española (texto pdf).
------------------------------------------------------------------------------------------------------

Versión DVDRip VO 155 Mb.
Enlace:
ed2k linkYa viene el cortejo (Carlos Arevalo, 1939) DVDRip XviD Ac3-DXC.avi ed2k link stats

Datos técnicos:
Ripeo anamórfico: 720x576 --> 768x576

Código: Seleccionar todo

General
Complete name                    : Ya viene el cortejo (Carlos Arevalo, 1939) DVDRip XviD Ac3-DXC.avi
Format                           : AVI
Format/Info                      : Audio Video Interleave
File size                        : 155 MiB
Duration                         : 11mn 43s
Overall bit rate                 : 1 848 Kbps
Writing application              : VirtualDubMod 1.5.10.2 (build 2542/release)
Writing library                  : VirtualDubMod build 2542/release

Video
ID                               : 0
Format                           : MPEG-4 Visual
Format profile                   : Simple@L3
Format settings, BVOP            : No
Format settings, QPel            : No
Format settings, GMC             : No warppoints
Format settings, Matrix          : Default (H.263)
Codec ID                         : XVID
Codec ID/Hint                    : XviD
Duration                         : 11mn 43s
Bit rate                         : 1 585 Kbps
Width                            : 720 pixels
Height                           : 576 pixels
Display aspect ratio             : 4:3
Frame rate                       : 25.000 fps
Standard                         : PAL
Color space                      : YUV
Chroma subsampling               : 4:2:0
Bit depth                        : 8 bits
Scan type                        : Progressive
Compression mode                 : Lossy
Bits/(Pixel*Frame)               : 0.153
Stream size                      : 133 MiB (86%)
Writing library                  : XviD 1.2.0.dev47 (UTC 2006-11-01)

Audio
ID                               : 1
Format                           : AC-3
Format/Info                      : Audio Coding 3
Mode extension                   : CM (complete main)
Codec ID                         : 2000
Duration                         : 11mn 43s
Bit rate mode                    : Constant
Bit rate                         : 256 Kbps
Channel(s)                       : 2 channels
Channel positions                : Front: L R
Sampling rate                    : 48.0 KHz
Bit depth                        : 16 bits
Compression mode                 : Lossy
Stream size                      : 21.5 MiB (14%)
Alignment                        : Split accross interleaves
Interleave, duration             : 96 ms (2.40 video frames)
Interleave, preload duration     : 96 ms
Capturas:
Imagen
Imagen Imagen Imagen Imagen
Imagen Imagen Imagen Imagen
Notas sobre el ripeo: La fuente es un DVD de la Filmotec@ Nacion@l, donde el corto adolece de baja calidad de imagen y sonido.
Extraído con DVDDecrypter y codificado a doble pasada sin filtros, ni cropeo (el cuadro oscila continuamente, sobre todo en horizontal), con el audio Ac3 original. El anamorfismo es totalmente involuntario.
------------------------------------------------------------------------------------------------------
Enlaces relacionados:
¡Harka! (Carlos Arévalo, 1941) DVBRip
Rojo y negro (Carlos Arévalo, 1942) DVDRip

Un cine bajo influencia (Richard Prost, 2001) SATRip VE
La guerra filmada (TVE-Filmoteca Española, 2006) SATRip
Cine de propaganda franquista / Franco en el cine (1936-75)
Cine Documental 8a. El documental en España I.
El cine documental durante la guerra civil.
La producción franquista.
Saludos.

Responder