La madre que los parió (Inma Jiménez Neira, 2007/2008) WEBRip

Espacio destinado a enlaces de obras cinematográficas de caracter documental.
Responder
Avatar de Usuario
hammett
Mensajes: 500
Registrado: Vie 10 Oct, 2008 09:04

La madre que los parió (Inma Jiménez Neira, 2007/2008) WEBRip

Mensaje por hammett » Lun 06 Feb, 2023 15:20

Aquí os traigo un cortometraje de la hija de un antiguo compañero mío de trabajo. Me parece un documental magnífico, muy bien filmado y muy bien estructurado. Lástima de la calidad de la copia, pero no he podido conseguir una copia mejor.

LA MADRE QUE LOS PARIÓ
Inma Jiménez Neira, 2007/2008

Imagen


Más información


AÑO: 2007/08
NACIONALIDAD: España
GÉNERO: Documental
DIRECTOR: Inma Jiménez Neira
PRODUCCIÓN: UAB y Televisió de Catalunya
PRODUCTORA: Carolina Senra
GUIÓN: Aline Gaia
FOTOGRAFÍA: Alejandro Bernal
MÚSICA: Geoff Maude
MONTAJE: Inma Jiménez Neira y Carmen G. Martínez
ARGUMENTO: La directora hereda unas fotos de su abuelo en las que el rostro de una mujer aparece sistemáticamente recortado. La búsqueda de respuestas desvelará un retrato entre lo real y lo imaginario.

CAPTURAS

Imagen

Imagen

Imagen

Imagen

Imagen


DATOS TECNICOS
Spoiler: mostrar
General
Complete name : L:\Descargas\La madre que los parió.mp4
Format : MPEG-4
Format profile : Base Media / Version 2
Codec ID : mp42
File size : 72.5 MiB
Duration : 28mn 58s
Overall bit rate mode : Variable
Overall bit rate : 350 Kbps
Encoded date : UTC 2022-06-23 12:37:12
Tagged date : UTC 2022-06-23 12:37:12
gsst : 0
gstd : 1738083

Video
ID : 1
Format : AVC
Format/Info : Advanced Video Codec
Format profile : Main@L3.0
Format settings, CABAC : Yes
Format settings, ReFrames : 3 frames
Codec ID : avc1
Codec ID/Info : Advanced Video Coding
Duration : 28mn 58s
Bit rate mode : Variable
Bit rate : 219 Kbps
Width : 584 pixels
Height : 360 pixels
Display aspect ratio : 16:10
Frame rate mode : Constant
Frame rate : 25.000 fps
Color space : YUV
Chroma subsampling : 4:2:0
Bit depth : 8 bits
Scan type : Progressive
Bits/(Pixel*Frame) : 0.042
Stream size : 45.4 MiB (63%)
Title : ISO Media file produced by Google Inc. Created on: 06/23/2022.
Encoded date : UTC 2022-06-23 12:37:12
Tagged date : UTC 2022-06-23 12:37:12
Color primaries : BT.601 NTSC
Transfer characteristics : BT.709
Matrix coefficients : BT.601

Audio
ID : 2
Format : AAC
Format/Info : Advanced Audio Codec
Format profile : LC
Codec ID : 40
Duration : 28mn 58s
Bit rate mode : Variable
Bit rate : 128 Kbps
Channel(s) : 2 channels
Channel positions : Front: L R
Sampling rate : 44.1 KHz
Compression mode : Lossy
Delay relative to video : 40ms
Stream size : 26.5 MiB (37%)
Title : ISO Media file produced by Google Inc. Created on: 06/23/2022.
Encoded date : UTC 2022-06-23 12:37:12
Tagged date : UTC 2022-06-23 12:37:12




"La vida es en color, pero el blanco y negro es más realista"

Avatar de Usuario
Dardo
Arrow Thrower Clown
Mensajes: 18147
Registrado: Dom 19 Oct, 2003 02:00
Ubicación: Entre Encinas y Dolomías

Re: La madre que los parió (Inma Jiménez Neira, 2007/2008) WEBRip VO

Mensaje por Dardo » Lun 06 Feb, 2023 15:49

Muchas gracias compi!!! :wink:

Avatar de Usuario
marioguerola
Elegancia y sencillez
Mensajes: 688
Registrado: Lun 18 Abr, 2022 21:42

Re: La madre que los parió (Inma Jiménez Neira, 2007/2008) WEBRip

Mensaje por marioguerola » Lun 06 Feb, 2023 20:13

hammett escribió:
Lun 06 Feb, 2023 15:20
La directora hereda unas fotos de su abuelo en las que el rostro de una mujer aparece sistemáticamente recortado. La búsqueda de respuestas desvelará un retrato entre lo real y lo imaginario.
Qué interesante síntesis. Moola.
Pincho de inmediato, me gusta mucho la crónica y el cine documental, cuando se da esa mezcla potente de literatura, historia y periodismo bien mezclaíta, es la esencia hecha cine.
Gracias Hammett :plas:
«Es mucho mejor dar que recibir»
(Madre Teresa de Calcuta y Mike Tyson)

Avatar de Usuario
hammett
Mensajes: 500
Registrado: Vie 10 Oct, 2008 09:04

Re: La madre que los parió (Inma Jiménez Neira, 2007/2008) WEBRip

Mensaje por hammett » Lun 06 Feb, 2023 20:54

marioguerola escribió:
Lun 06 Feb, 2023 20:13
Qué interesante síntesis. Moola.
Pincho de inmediato, me gusta mucho la crónica y el cine documental, cuando se da esa mezcla potente de literatura, historia y periodismo bien mezclaíta, es la esencia hecha cine.
Gracias Hammett :plas:
Espero que te guste, a mí me ha parecido un documental muy bien realizado, sobre un tema muy apasionante.
"La vida es en color, pero el blanco y negro es más realista"

Responder