Olimpiada (Parte 1) (Leni Riefenstahl, 1938) HD 1080p VOSE

Espacio destinado a enlaces de obras cinematográficas de caracter documental.
Responder
Avatar de Usuario
Teeninlove
Mensajes: 1480
Registrado: Dom 25 Jul, 2004 02:00

Olimpiada (Parte 1) (Leni Riefenstahl, 1938) HD 1080p VOSE

Mensaje por Teeninlove » Mar 22 Nov, 2022 19:52

Olimpiada (Parte 1) / Olympia Teil 1: Fest der Völker (Leni Riefenstahl, 1938)

IMDb

filmaffinity

Imagen




Sinopsis:
Documental sobre los Juegos Olímpicos celebrados en la ciudad de Berlín en 1936.
Divida en dos partes de 118 y 107 minutos, respectivamente,
el atletismo ocupa buena parte de su metraje, incluida la primera parte en su integridad.
La segunda incluye imágenes de gimnasia, vela, pentatlón, decatlón, hockey sobre hierba, polo, fútbol,
ciclismo, hípica, remo, salto y natación. (FILMAFFINITY)


Imagen





Capturas:

Imagen
Imagen
Imagen
Imagen
Imagen
Imagen
Imagen
Imagen
Imagen



Datos Técnicos:
Spoiler: mostrar

General
Unique ID : 263693964407812436897981683095608879627 (0xC6619C376CCE91B3B855683A35A9EA0B)
Complete name : C:\Olympia.Part.One.Festival.of.the.Nations.1938.1080p.BluRay Criterion.FLAC1.0.x264-Geek.mkv
Format : Matroska
Format version : Version 4
File size : 18.1 GiB
Duration : 2 h 7 min
Overall bit rate mode : Variable
Overall bit rate : 20.4 Mb/s
Encoded date : UTC 2022-10-17 21:17:14
Writing application : mkvmerge v69.0.0 ('Day And Age') 64-bit
Writing library : libebml v1.4.2 + libmatroska v1.6.4

Video
ID : 1
Format : AVC
Format/Info : Advanced Video Codec
Format profile : High@L4.1
Format settings : CABAC / 5 Ref Frames
Format settings, CABAC : Yes
Format settings, Reference frames : 5 frames
Codec ID : V_MPEG4/ISO/AVC
Duration : 2 h 7 min
Bit rate : 19.8 Mb/s
Width : 1 480 pixels
Height : 1 080 pixels
Display aspect ratio : 1.370
Frame rate mode : Constant
Frame rate : 23.976 (24000/1001) FPS
Color space : YUV
Chroma subsampling : 4:2:0
Bit depth : 8 bits
Scan type : Progressive
Bits/(Pixel*Frame) : 0.517
Stream size : 17.6 GiB (97%)
Writing library : x264 core 155 r2867+74 66b5600 t_mod_Custom_2 [8-bit@all X86_64]
Encoding settings : cabac=1 / ref=5 / deblock=1:-3:-3 / analyse=0x3:0x133 / me=umh / subme=11 / psy=1 / fade_compensate=0.00 / psy_rd=1.00:0.00 / mixed_ref=1 / me_range=64 / chroma_me=1 / trellis=2 / 8x8dct=1 / cqm=0 / deadzone=21,11 / fast_pskip=0 / chroma_qp_offset=-2 / threads=36 / lookahead_threads=6 / sliced_threads=0 / nr=0 / decimate=0 / interlaced=0 / bluray_compat=0 / constrained_intra=0 / fgo=0 / bframes=7 / b_pyramid=2 / b_adapt=2 / b_bias=0 / direct=3 / weightb=1 / open_gop=0 / weightp=2 / keyint=250 / keyint_min=23 / scenecut=40 / intra_refresh=0 / rc_lookahead=70 / rc=2pass / mbtree=1 / bitrate=19800 / ratetol=1.0 / qcomp=0.70 / qpmin=0:0:0 / qpmax=36:36:36 / qpstep=4 / cplxblur=20.0 / qblur=0.5 / ip_ratio=1.30 / aq=3:0.75 / aq-sensitivity=10.00 / aq-factor=1.00:1.00:1.00 / aq2=0 / aq3=0 / zones=9759,10336,b=2.0/11663,11766,b=2.1/14349,15210,b=2.0/16147,16652,b=2.1/20626,20753,b=2.0/22273,23036,b=2.0/23138,23851,b=2.1/108371,108612,b=2.1/111240,111304,b=2.1/128516,128627,b=2.0/139218,139269,b=2.1/140619,140720,b=2.0/145056,145258,b=2.0/167803,167920,b=2.1/169748,169861,b=2.1/176236,176451,b=2.1
Default : Yes
Forced : No
Color range : Limited
Color primaries : BT.709
Matrix coefficients : BT.709

Audio
ID : 2
Format : FLAC
Format/Info : Free Lossless Audio Codec
Codec ID : A_FLAC
Duration : 2 h 7 min
Bit rate mode : Variable
Bit rate : 598 kb/s
Channel(s) : 1 channel
Channel layout : C
Sampling rate : 48.0 kHz
Frame rate : 11.719 FPS (4096 SPF)
Bit depth : 24 bits
Compression mode : Lossless
Stream size : 544 MiB (3%)
Writing library : libFLAC 1.2.1 (UTC 2007-09-17)
Language : German
Default : Yes
Forced : No

Text #1
ID : 3
Format : UTF-8
Codec ID : S_TEXT/UTF8
Codec ID/Info : UTF-8 Plain Text
Duration : 2 h 3 min
Bit rate : 32 b/s
Count of elements : 711
Stream size : 29.5 KiB (0%)
Title : spa DVD CAMEO + trad propia
Language : Spanish
Default : Yes
Forced : No

Text #2
ID : 4
Format : UTF-8
Codec ID : S_TEXT/UTF8
Codec ID/Info : UTF-8 Plain Text
Duration : 2 h 3 min
Bit rate : 28 b/s
Count of elements : 710
Stream size : 26.2 KiB (0%)
Language : English
Default : Yes
Forced : No

Menu
00:00:00.000 : en:Chapter 1
00:11:59.593 : en:Chapter 2
00:17:20.039 : en:Chapter 3
00:22:50.535 : en:Chapter 4
00:26:49.608 : en:Chapter 5
00:31:36.644 : en:Chapter 6
00:34:14.385 : en:Chapter 7
00:35:56.195 : en:Chapter 8
00:38:33.269 : en:Chapter 9
00:42:43.644 : en:Chapter 10
00:47:02.194 : en:Chapter 11
00:53:14.649 : en:Chapter 12
00:57:24.315 : en:Chapter 13
01:00:22.410 : en:Chapter 14
01:03:51.035 : en:Chapter 15
01:06:24.271 : en:Chapter 16
01:11:07.221 : en:Chapter 17
01:17:40.197 : en:Chapter 18
01:20:43.839 : en:Chapter 19
01:25:13.108 : en:Chapter 20
01:31:31.944 : en:Chapter 21
01:41:45.099 : en:Chapter 22
01:43:57.648 : en:Chapter 23
01:45:13.932 : en:Chapter 24
01:48:50.941 : en:Chapter 25






Enlaces:

ed2k linkOlympia 1938 Pt 1 1080p BD Criterion VOSE ed2k link stats




Notas:
Ripeo del BD de Criterion por el grupo Geek.
Fixed dirtylines with BalanceBorders.
Debanded some scenes with f3kdb.
Used zones for set to increase birate in debanded and dark scenes.
Eng sub is from @johnnydeep, million thanks.
x264 [info]: frame I:904 Avg QP:23.64 size:156521
x264 [info]: frame P:38483 Avg QP:25.55 size:109587
x264 [info]: frame B:143841 Avg QP:26.54 size:101177
x264 [info]: consecutive B-frames: 1.2% 3.3% 7.9% 15.1% 12.8% 49.4% 7.8% 2.4%
encoded 183228 frames, 9.199 fps, 19797.72 kb/s, 18036 MB

He sincronizado los subs españoles del DVD de XXMEO (R2), aparte he traducido líneas
que no estaban en dichos subs (la sincro ha sido un paseo por el infierno, yo diría
que el DVD es otro montaje)



Aparte el ripeo original lleva subs ingleses.

Avatar de Usuario
eulsus
Mensajes: 2266
Registrado: Vie 18 May, 2007 10:41

Re: Olimpiada (Parte 1) (Leni Riefenstahl, 1938) HD 1080p VOSE

Mensaje por eulsus » Mar 22 Nov, 2022 21:22

Muchas gracias por el currazo que te has pegado, Teen. :plas: :plas: :plas:

Mucho ánimo con la segunda parte, que seguro que te va a hacer mucha falta y para los momentos de bajona te pones Highway to Hell de AC/DC y solucionado. :mrgreen:
Sólo otro paseíto por el infierno y ya te habrás ganado el cielo. :lol:
Imagen
Antonio García-Trevijano Forte (1927-2018)
"Para que yo sea libre, todos tienen que ser libres"

Abstención activa hasta que haya Libertad Colectiva

Avatar de Usuario
Teeninlove
Mensajes: 1480
Registrado: Dom 25 Jul, 2004 02:00

Re: Olimpiada (Parte 1) (Leni Riefenstahl, 1938) HD 1080p VOSE

Mensaje por Teeninlove » Mar 22 Nov, 2022 22:42

eulsus escribió:
Mar 22 Nov, 2022 21:22
Muchas gracias por el currazo que te has pegado, Teen. :plas: :plas: :plas:

Mucho ánimo con la segunda parte, que seguro que te va a hacer mucha falta y para los momentos de bajona te pones Highway to Hell de AC/DC y solucionado. :mrgreen:
Sólo otro paseíto por el infierno y ya te habrás ganado el cielo. :lol:
A ver si dentro de un par de meses... :mrgreen:

Avatar de Usuario
Dardo
Arrow Thrower Clown
Mensajes: 17691
Registrado: Dom 19 Oct, 2003 02:00
Ubicación: Entre Encinas y Dolomías

Re: Olimpiada (Parte 1) (Leni Riefenstahl, 1938) HD 1080p VOSE

Mensaje por Dardo » Mar 22 Nov, 2022 23:37

:plas: :plas: :plas: :plas: :plas:

Avatar de Usuario
eulsus
Mensajes: 2266
Registrado: Vie 18 May, 2007 10:41

Re: Olimpiada (Parte 1) (Leni Riefenstahl, 1938) HD 1080p VOSE

Mensaje por eulsus » Mié 23 Nov, 2022 09:51

Teeninlove escribió:
Mar 22 Nov, 2022 22:42
A ver si dentro de un par de meses... :mrgreen:
A tenor de la temática, es razonable un margen de 4 años. :lol:
Así que si sólo van a ser un par de meses, cojonudo. :wink:

_________________________________________________

No conocía al grupo Geek que ha hecho el ripeo, pero de ser ciertas las mejoras que dicen que han hecho con el blu-ray del sello Criterion, es que son unos maquinones.
Imagen
Antonio García-Trevijano Forte (1927-2018)
"Para que yo sea libre, todos tienen que ser libres"

Abstención activa hasta que haya Libertad Colectiva

Responder