Total (José Luis Cuerda, 1985) SATRip

Aquí tienen cabida todas aquellas series, programas, anuncios, etc. que tragamos durante tantos años, cuando no existía Internet y ni siquiera podíamos elegir.
cerebrin

Mensajes: 343
Registrado: Vie 15 Jul, 2005 02:00
Ubicación: Abadia De Berzano

Mensajepor cerebrin » Mié 24 Ene, 2007 19:41

Otro más que la ha completado. La pongo en lanzamiento a ver si se distribuye algo más.
Entra en "La abadía de Berzano":

http://cerebrin.wordpress.com

pedroje

Mensajes: 27
Registrado: Jue 29 Ene, 2004 01:00

Total (José Luis Cuerda, 1983) SATRip

Mensajepor pedroje » Mié 19 Ene, 2011 22:34

La estaba buscando desde hace tiempo, pues solo habia una version VHSrip que se veia mal y hace unos dias la repitieron en la dos y la pude capturar.

Imagen

Titulo Original: Total
GENERO: Ciencia Ficción
PAIS: España
DURACION: 86 Minutos
AÑO: 1985
REPARTO: Agustín González, María Luisa Ponte, Manuel Alexandre, Miguel Rellán, Luis Ciges, Chus Lampreave...

"Total" abre la trilogía que cierran "Amanece que no es poco" y "Así en el Cielo como en la Tierra". Año 2598. Hace tres días que el mundo ha llegado a su fin en Londres, un pequeño y perdido pueblo de ambiente castellano. Lorenzo, pastor de ovejas, nos cuenta una serie de sucesos extraordinarios que han ido anunciando el fin del mundo: las vacas quieren ir a la escuela, las paredes se derrumban, o Doña Paquita se aparece en los lugares más insospechados... (FILMAFFINITY)

Datos tecnicos:


Código: Seleccionar todo

Total (J. Luís Cuerda-1985).TDTrip (by Pedroje).avi
Format                           : AVI
Format/Info                      : Audio Video Interleave
File size                        : 853 MiB
Duration                         : 53mn 10s
Overall bit rate                 : 2 243 Kbps

Video
ID                               : 0
Format                           : MPEG-4 Visual
Format profile                   : Simple@L3
Format settings, BVOP            : No
Format settings, QPel            : No
Format settings, GMC             : No warppoints
Format settings, Matrix          : Default (H.263)
Codec ID                         : XVID
Codec ID/Hint                    : XviD
Duration                         : 53mn 10s
Bit rate                         : 2 102 Kbps
Width                            : 720 pixels
Height                           : 576 pixels
Display aspect ratio             : 4:3
Frame rate                       : 25.000 fps
Standard                         : PAL
Color space                      : YUV
Chroma subsampling               : 4:2:0
Bit depth                        : 8 bits
Scan type                        : Progressive
Compression mode                 : Lossy
Bits/(Pixel*Frame)               : 0.203
Stream size                      : 799 MiB (94%)
Writing library                  : XviD 1.2.1 (UTC 2008-12-04)

Audio
ID                               : 1
Format                           : MPEG Audio
Format version                   : Version 1
Format profile                   : Layer 3
Codec ID                         : 55
Codec ID/Hint                    : MP3
Duration                         : 53mn 10s
Bit rate mode                    : Constant
Bit rate                         : 128 Kbps
Channel(s)                       : 2 channels
Sampling rate                    : 48.0 KHz
Compression mode                 : Lossy
Stream size                      : 48.7 MiB (6%)
Alignment                        : Split accross interleaves
Interleave, duration             : 24 ms (0.60 video frame)
Writing library                  : LAME3.98.2ªªªªªªQ&’@


Capturejas:


Imagen
Imagen
Imagen Imagen Imagen Imagen



Enlace:
Total (J. Luís Cuerda-1985).TDTrip (by Pedroje).avi [852.89 Mb] [Info]

Habibi Ayllón

Mensajes: 1
Registrado: Sab 26 Ago, 2017 19:20

Re: Total (José Luis Cuerda, 1985) SATRip

Mensajepor Habibi Ayllón » Sab 26 Ago, 2017 19:33

¿Alguien sabe si este enlace sigue activo? Lo tengo bajando desde hace unos días, somos once ahora mismo supuestamente bajandola, pero solemos conectarnos 6 y todos la tenemos al 0%...

Si definitivamente veo que nadie la tiene la buscaré por otro lado y la pongo de nuevo... ¡a ver si alguien sabe que pasó!

DCINE

Mensajes: 326
Registrado: Mar 20 Dic, 2016 15:02

Re: Total (José Luis Cuerda, 1985) SATRip

Mensajepor DCINE » Mié 06 Sep, 2017 16:55

Habibi Ayllón escribió:¿Alguien sabe si este enlace sigue activo? Lo tengo bajando desde hace unos días, somos once ahora mismo supuestamente bajandola, pero solemos conectarnos 6 y todos la tenemos al 0%...

Si definitivamente veo que nadie la tiene la buscaré por otro lado y la pongo de nuevo... ¡a ver si alguien sabe que pasó!


Aquí la tienes con bastante fuentes y mejor calidad de imagen : viewtopic.php?f=1015&t=74977


Volver a “Televisión”

¿Quién está conectado?

Usuarios navegando por este Foro: Google [Bot] y 3 invitados