The Dresser (Peter Yates, 1983) HD 720p Dual SE

Foro orientado a películas de calidad posteriores a 1980. Publica sólo BDRips, DVDRips o TVRips (no Screeners, CAMs, etc.).
Responder
Avatar de Usuario
DMMD
Mensajes: 1885
Registrado: Lun 27 Feb, 2012 14:16

The Dresser (Peter Yates, 1983) HD 720p Dual SE

Mensaje por DMMD » Vie 24 Dic, 2021 11:03

Imagen


Imagen


La sombra del actor

Título original The Dresser
Año 1983
Duración 118 min.
País Imagen
Dirección Peter Yates
Guion Ronald Harwood. Teatro: Ronald Harwood
Música James Horner
Fotografía Kevin Pike
Reparto
Albert Finney, Tom Courtenay, Edward Fox, Eileen Atkins, Michael Gough, Zena Walker

Productora Columbia Pictures, Goldcrest Films, World Film Services
Género Drama | Teatro. II Guerra Mundial
Sinopsis
Inglaterra, II Guerra Mundial (1939-1945). Un decadente actor shakesperiano y su ayudante mantienen una extraña relación que oscila entre la devoción y el resentimiento. El actor, entregado en cuerpo y alma a su profesión, vive obsesionado por mantener en pie su compañía pese a todas las dificultades. Su ayudante, que es también un apasionado del teatro, vive a merced de las delirantes exigencias del actor. Los bombardeos alemanes contra Inglaterra sirven de telón de fondo a esta historia. (FILMAFFINITY)

Premios
1983: 5 nominaciones Oscar: Actores (Finney & Courtenay), direct., película, guión adaptado
1983: Globo de Oro: Mejor actor drama (Tom Courtenay). 5 nominaciones
1984: Festival de Berlín: Oso de Plata - Mejor actor (Albert Finney), Premio C.I.D.A.L.C.
1984: Premios BAFTA: 7 nominaciones, incluyendo Mejor película






Albert Finney, Tom Courtenay and Peter Yates.
Imagen



Código: Seleccionar todo

General
Unique ID                                : 187792196118770931848738608879306003288 (0x8D47761D2DDB3EE46D24B85A141BD358)
Complete name                            : D:\Incoming\1983-The.Dresser.WEBRip.x264.720p.AC3.(DMMD).mkv
Format                                   : Matroska
Format version                           : Version 4
File size                                : 3.92 GiB
Duration                                 : 1 h 58 min
Overall bit rate                         : 4 742 kb/s
Movie name                               : 1983-The.Dresser.WEBRip.x264.720p.AC3.(DMMD)
Encoded date                             : UTC 2021-12-24 09:51:28
Writing application                      : mkvmerge v63.0.0 ('Everything') 64-bit
Writing library                          : libebml v1.4.2 + libmatroska v1.6.4
Attachments                              : 1 / 2 / 3 / 4 / 5 / 6 / 7 / 8

Video
ID                                       : 1
Format                                   : AVC
Format/Info                              : Advanced Video Codec
Format profile                           : High@L4.1
Format settings                          : CABAC / 9 Ref Frames
Format settings, CABAC                   : Yes
Format settings, Reference frames        : 9 frames
Codec ID                                 : V_MPEG4/ISO/AVC
Duration                                 : 1 h 58 min
Bit rate                                 : 4 322 kb/s
Width                                    : 1 280 pixels
Height                                   : 720 pixels
Display aspect ratio                     : 16:9
Frame rate mode                          : Constant
Frame rate                               : 23.976 (24000/1001) FPS
Color space                              : YUV
Chroma subsampling                       : 4:2:0
Bit depth                                : 8 bits
Scan type                                : Progressive
Bits/(Pixel*Frame)                       : 0.196
Stream size                              : 3.58 GiB (91%)
Language                                 : English
Default                                  : Yes
Forced                                   : No

Audio #1
ID                                       : 2
Format                                   : E-AC-3
Format/Info                              : Enhanced AC-3
Commercial name                          : Dolby Digital Plus
Codec ID                                 : A_EAC3
Duration                                 : 1 h 58 min
Bit rate mode                            : Constant
Bit rate                                 : 224 kb/s
Channel(s)                               : 2 channels
Channel layout                           : L R
Sampling rate                            : 48.0 kHz
Frame rate                               : 31.250 FPS (1536 SPF)
Compression mode                         : Lossy
Delay relative to video                  : 11 ms
Stream size                              : 190 MiB (5%)
Language                                 : English
Service kind                             : Complete Main
Default                                  : Yes
Forced                                   : No

Audio #2
ID                                       : 3
Format                                   : AC-3
Format/Info                              : Audio Coding 3
Commercial name                          : Dolby Digital
Codec ID                                 : A_AC3
Duration                                 : 1 h 58 min
Bit rate mode                            : Constant
Bit rate                                 : 192 kb/s
Channel(s)                               : 2 channels
Channel layout                           : L R
Sampling rate                            : 48.0 kHz
Frame rate                               : 31.250 FPS (1536 SPF)
Compression mode                         : Lossy
Delay relative to video                  : 11 ms
Stream size                              : 163 MiB (4%)
Language                                 : Spanish
Service kind                             : Complete Main
Default                                  : No
Forced                                   : No

Text #1
ID                                       : 4
Format                                   : UTF-8
Codec ID                                 : S_TEXT/UTF8
Codec ID/Info                            : UTF-8 Plain Text
Duration                                 : 1 h 54 min
Bit rate                                 : 60 b/s
Count of elements                        : 1273
Stream size                              : 50.7 KiB (0%)
Language                                 : Spanish
Default                                  : No
Forced                                   : No

Text #2
ID                                       : 5
Format                                   : UTF-8
Codec ID                                 : S_TEXT/UTF8
Codec ID/Info                            : UTF-8 Plain Text
Duration                                 : 12 s 52 ms
Bit rate                                 : 107 b/s
Count of elements                        : 3
Stream size                              : 162 Bytes (0%)
Title                                    : Forzados
Language                                 : Spanish
Default                                  : No
Forced                                   : No

Text #3
ID                                       : 6
Format                                   : UTF-8
Codec ID                                 : S_TEXT/UTF8
Codec ID/Info                            : UTF-8 Plain Text
Duration                                 : 1 h 54 min
Bit rate                                 : 62 b/s
Count of elements                        : 1791
Stream size                              : 52.3 KiB (0%)
Language                                 : English
Default                                  : No
Forced                                   : No

Menu
00:00:00.000                             : 00:00:00.000
00:02:48.203                             : 00:02:48.203
00:14:12.843                             : 00:14:12.843
00:20:27.403                             : 00:20:27.403
00:58:23.563                             : 00:58:23.563
01:01:36.083                             : 01:01:36.083
01:08:57.683                             : 01:08:57.683
01:21:41.763                             : 01:21:41.763
01:29:43.043                             : 01:29:43.043
01:34:39.443                             : 01:34:39.443
01:42:31.763                             : 01:42:31.763
01:45:57.803                             : 01:45:57.803

Vídeo:
Encode partiendo de una fuente HD 1080, pasando por chapa y pintura, retocando principalmente la iluminación.

[Imagen Imagen Imagen Imagen Imagen Imagen Imagen Imagen Imagen Imagen

Imagen


WEBRip 720p vs Dvd (Pal)

Imagen
Imagen

Imagen

Audio y subtitulos:

Para la versión original de la propia fuente de partida.

Doblaje y sub del propio Dvd.

- He añadido unas 35 líneas a los sub del dvd, momentos musicales, que en un descuido se les ha pasado incluirlas.


Imagen


CAPTURAS

Imagen
Imagen
Imagen
Imagen
Imagen
Imagen
Imagen
Imagen
Imagen
Imagen
Imagen

Imagen

Enlaces de descarga

Imagen

ed2k link1983-The.Dresser.WEBRip.x264.720p.AC3.(DMMD).mkv ed2k link stats

Imagen

ostrata
Mensajes: 2491
Registrado: Mié 24 Mar, 2010 17:29

Re: The Dresser (Peter Yates, 1983) HD 720p Dual SE

Mensaje por ostrata » Vie 24 Dic, 2021 12:53

Gracias. :)

Saludos.

Avatar de Usuario
Forrest Gump
Mensajes: 1679
Registrado: Vie 18 May, 2007 18:06
Ubicación: Zihuatanejo

Re: The Dresser (Peter Yates, 1983) HD 720p Dual SE

Mensaje por Forrest Gump » Vie 24 Dic, 2021 15:09

La vi hace años por TV. Buen momento para repasarla.
Muchas gracias, DMMD. Y Feliz Navidad para todos. :wink:
Made it, Ma, top of the world!

joramor
Mensajes: 1825
Registrado: Vie 05 Nov, 2010 19:55

Re: The Dresser (Peter Yates, 1983) HD 720p Dual SE

Mensaje por joramor » Sab 25 Dic, 2021 21:09

Muchas gracias, DMMD. Felices Fiestas!

Avatar de Usuario
Spanish Jhonny
Mensajes: 3327
Registrado: Mar 18 Sep, 2012 16:01

Re: The Dresser (Peter Yates, 1983) HD 720p Dual SE

Mensaje por Spanish Jhonny » Mié 05 Ene, 2022 21:59

Vamos a por ella.
Muchas gracias ;)
Un saludo.

Avatar de Usuario
WalterBurns
Mensajes: 1214
Registrado: Dom 11 Oct, 2015 15:08

Re: The Dresser (Peter Yates, 1983) HD 720p Dual SE

Mensaje por WalterBurns » Dom 06 Feb, 2022 12:29

Gracias por compartirla.

Avatar de Usuario
paizoco
Mensajes: 2882
Registrado: Vie 21 Nov, 2003 01:00
Ubicación: Far West

Re: The Dresser (Peter Yates, 1983) HD 720p Dual SE

Mensaje por paizoco » Dom 06 Feb, 2022 15:07

Me apunto ahora, muchas gracias.

Responder