Enrico IV (Marco Bellocchio, 1984) HD 1080p VOSE

Foro orientado a películas de calidad posteriores a 1980. Publica sólo BDRips, DVDRips o TVRips (no Screeners, CAMs, etc.).
Responder
jotarapidup
Mensajes: 141
Registrado: Jue 10 Dic, 2009 01:02

Enrico IV (Marco Bellocchio, 1984) HD 1080p VOSE

Mensaje por jotarapidup » Lun 12 Oct, 2020 08:08

Imagen

ENRIQUE CUARTO


En una fiesta de disfraces, un hombre disfrazado de Enrique IV de Alemania, se cae del caballo y se golpea la cabeza. Eso le provoca graves lesiones y desequilibrios mentales que lo llevan a creer que es realmente el rey... Drama basado en una obra del escritor siciliano Luigi Pirandello. (FILMAFFINITY)

Premios
1984: Festival de Cannes: Nominada a la Palma de Oro (mejor película)

Críticas
"Gran duelo interpretativo"

Marcello Mastroianni, Claudia Cardinale, Leopoldo Trieste, Paolo Bonacelli, Luciano Bartoli, Latou Chardons

Código: Seleccionar todo

General
Unique ID                                : 293751610641362146003462840079448096251 (0xDCFE8097B0D86C33EFF87DE69ABD3DFB)
Complete name                            : C:\Users\Joaquin Concha\Downloads\eMule\Incoming\Enrico.IV.1984.1080p.AMZN.WEB-DL.AAC2.0.H.264.VO.ENG.ESP.FR.Subtitles.mkv
Format                                   : Matroska
Format version                           : Version 4
File size                                : 5.74 GiB
Duration                                 : 1 h 22 min
Overall bit rate                         : 10.0 Mb/s
Encoded date                             : UTC 2020-10-11 11:01:57
Writing application                      : mkvmerge v50.0.0 ('Awakenings') 64-bit
Writing library                          : libebml v1.4.0 + libmatroska v1.6.2

Video
ID                                       : 1
Format                                   : AVC
Format/Info                              : Advanced Video Codec
Format profile                           : High@L4
Format settings                          : CABAC / 4 Ref Frames
Format settings, CABAC                   : Yes
Format settings, Reference frames        : 4 frames
Codec ID                                 : V_MPEG4/ISO/AVC
Duration                                 : 1 h 22 min
Bit rate mode                            : Constant
Bit rate                                 : 10 000 kb/s
Width                                    : 1 792 pixels
Height                                   : 1 080 pixels
Display aspect ratio                     : 5:3
Frame rate mode                          : Constant
Frame rate                               : 25.000 FPS
Color space                              : YUV
Chroma subsampling                       : 4:2:0
Bit depth                                : 8 bits
Scan type                                : Progressive
Bits/(Pixel*Frame)                       : 0.207
Stream size                              : 5.66 GiB (99%)
Default                                  : Yes
Forced                                   : No
Color range                              : Limited
Color primaries                          : BT.709
Transfer characteristics                 : BT.709
Matrix coefficients                      : BT.709

Audio
ID                                       : 2
Format                                   : AAC LC
Format/Info                              : Advanced Audio Codec Low Complexity
Codec ID                                 : A_AAC-2
Duration                                 : 1 h 22 min
Bit rate                                 : 128 kb/s
Channel(s)                               : 2 channels
Channel layout                           : L R
Sampling rate                            : 48.0 kHz
Frame rate                               : 46.875 FPS (1024 SPF)
Compression mode                         : Lossy
Delay relative to video                  : -80 ms
Stream size                              : 75.2 MiB (1%)
Language                                 : Italian
Default                                  : Yes
Forced                                   : No

Text #1
ID                                       : 3
Format                                   : UTF-8
Codec ID                                 : S_TEXT/UTF8
Codec ID/Info                            : UTF-8 Plain Text
Duration                                 : 1 h 20 min
Bit rate                                 : 42 b/s
Count of elements                        : 677
Stream size                              : 24.9 KiB (0%)
Language                                 : English
Default                                  : No
Forced                                   : No

Text #2
ID                                       : 4
Format                                   : UTF-8
Codec ID                                 : S_TEXT/UTF8
Codec ID/Info                            : UTF-8 Plain Text
Duration                                 : 1 h 20 min
Bit rate                                 : 45 b/s
Count of elements                        : 685
Stream size                              : 27.0 KiB (0%)
Language                                 : Spanish
Default                                  : No
Forced                                   : No

Text #3
ID                                       : 5
Format                                   : UTF-8
Codec ID                                 : S_TEXT/UTF8
Codec ID/Info                            : UTF-8 Plain Text
Duration                                 : 1 h 20 min
Bit rate                                 : 47 b/s
Count of elements                        : 682
Stream size                              : 27.7 KiB (0%)
Language                                 : French
Default                                  : No
Forced                                   : No


Imagen
Imagen
Imagen
Imagen
Imagen
Imagen
Imagen
Imagen



Enrico.IV.1984.1080p.AMZN.WEB-DL.AAC2.0.H.264.VO.ENG.ESP.FR.Subtitles.mkv



La copia lleva subtítulos elegibles en español inglés y francés

Avatar de Usuario
Dardo
Arrow Thrower Clown
Mensajes: 16583
Registrado: Dom 19 Oct, 2003 02:00
Ubicación: Entre Encinas y Dolomías

Enrico IV (Marco Bellocchio, 1984) HD 1080p VOSE

Mensaje por Dardo » Lun 12 Oct, 2020 10:28

Gracias jotarapidup.

De Bellochio he visto muy poco, su último trabajo El traidor me decepcionó quizás también porque en ese género Sollima tiene el listón muy alto y cualquier cosa que veo me parece regulera.

Gran aporte y suerte de la variedad de la que disponemos. :sonrisa:

ostrata
Mensajes: 2212
Registrado: Mié 24 Mar, 2010 17:29

Re: Enrico IV (Marco Bellocchio, 1984) HD 1080p VOSE

Mensaje por ostrata » Lun 12 Oct, 2020 10:59

A mí Sollima (supongo que te refieres al hijo, Stefano) me gusta, pero Bellochio está unos escalones por encima de él, a mi parecer. Pertenecen, además, a universos narrativos distintos (Bellochio suele siempre más teatral; en Sollima prima la acción sobre la reflexión, sin que esto suponga, para mí, por sí, una desventaja del último frente al primero) aunque en alguna película puedan tratar el mismo tema. De todas maneras, no he visto todavía su última película.

Gracias por el aporte, jotarapidup. :)

Saludos.

Responder