A Chorus Line (Richard Attenborough, 1985) HD 720p Dual SE

Foro orientado a películas de calidad posteriores a 1980. Publica sólo BDRips, DVDRips o TVRips (no Screeners, CAMs, etc.).
Responder
DCINE
Mensajes: 502
Registrado: Mar 20 Dic, 2016 15:02

A Chorus Line (Richard Attenborough, 1985) HD 720p Dual SE

Mensaje por DCINE » Sab 12 Sep, 2020 08:16

A chorus Line
1985

Imagen




DIRECTOR: Richard Attenborough
PRODUCTORA: Distribuida por Metro-Goldwyn-Mayer (MGM). Embassy Films, Polygram Pictures
GUIÓN: Arnold Schulman (Obra: Michael Bennett)
MÚSICA: Canciones: Marvin Hamlisch, Edward Kleban
FOTOGRAFÍA: Ronnie Taylor


ImagenImagenImagen


ARGUMENTO Un centenar de bailarines y bailarinas han de realizar unas pruebas en el escenario de un teatro para demostrar si son aptos para la comedia musical que prepara el reputado y estricto Zach. De manera implacable se va desarrollando la selección hasta que solamente queden los elegidos. Entre las candidatas está Cassie, que fue la amante de Zach y que lo dejó para probar suerte en Hollywood. Tan sólo ocho artistas superarán esta despiadada competición. (FILMAFFINITY) IMDB: https://www.imdb.com/title/tt0088915/




Reparto: Michael Douglas, Terrence Mann, Alyson Reed, Audrey Landers, Michael Blevins, Jan Gan Boyd, Yamil Borges



Datos técnicos

Fuente: Riepo 1080p procedente de rutracker codificado a 720p

Audios:
V.O. (Inglés): En AC-3

Doblajes:

Español: El de su estreno en cines de 1986, de un DVDRip procedente de exvagos subido por 6ig6oy

Italiano: El de su estreno en cines de 1986, De un ripeo encontrado en emule

Francés: El de su estreno en cines de 1986, de un ripeo encontrado en intrenet

Subtitulos:

Español: Completos de subdivx y forzados creados por mí para las canciones usando como base los completos
Inglés: Ya incluidos

Código: Seleccionar todo

General:
Complete name                    : 1985 A Chorus Line (Richard Attenborough, 1985) BDRip 720p Cuatrial (Spa (Doblaje Cines 1986)-Eng-Ita-Fre) SE-I.mkv
Format                           : Matroska
Format version                   : Version 4 / Version 2
File size                        : 2.67 GiB
Duration                         : 1h 57mn
Overall bit rate                 : 3 251 Kbps
Movie name                       : 1985 A Chorus Line (Richard Attenborough, 1985) BDRip 720p Cuatrial (Spa (Doblaje Cines 1986)-Eng-Ita (Doppiaggio originale 1986)-Fre (Doublage original 1986)) SE-I.mkv
Encoded date                     : UTC 2020-08-17 20:36:37
Writing application              : mkvmerge v7.1.0 ('Good Love') 32bit built on Jul 27 2014 12:59:18
Writing library                  : libebml v1.3.0 + libmatroska v1.4.1
_STATISTICS_WRITING_APP          : mkvmerge v7.1.0 ('Good Love') 32bit built on Jul 27 2014 12:59:18
_STATISTICS_WRITING_DATE_UTC     : 2020-08-17 20:36:37
_STATISTICS_TAGS                 : BPS DURATION NUMBER_OF_FRAMES NUMBER_OF_BYTES
DURATION                         : 01:57:03.098000000
NUMBER_OF_FRAMES                 : 1794
NUMBER_OF_BYTES                  : 53858

Video
ID                               : 1
Format                           : AVC
Format/Info                      : Advanced Video Codec
Format profile                   : High@L4.1
Format settings, CABAC           : Yes
Format settings, ReFrames        : 12 frames
Codec ID                         : V_MPEG4/ISO/AVC
Duration                         : 1h 57mn
Bit rate                         : 2 290 Kbps
Width                            : 1 280 pixels
Height                           : 544 pixels
Display aspect ratio             : 2.35:1
Frame rate mode                  : Variable
Frame rate                       : 23.976 fps
Color space                      : YUV
Chroma subsampling               : 4:2:0
Bit depth                        : 8 bits
Scan type                        : Progressive
Bits/(Pixel*Frame)               : 0.137
Stream size                      : 1.88 GiB (70%)
Writing library                  : x264 core 155 r2901 7d0ff22
Encoding settings                : cabac=1 / ref=12 / deblock=1:0:0 / analyse=0x3:0x133 / me=umh / subme=10 / psy=1 / psy_rd=1.00:0.00 / mixed_ref=1 / me_range=24 / chroma_me=1 / trellis=2 / 8x8dct=1 / cqm=0 / deadzone=21,11 / fast_pskip=1 / chroma_qp_offset=-2 / threads=3 / lookahead_threads=1 / sliced_threads=0 / nr=0 / decimate=1 / interlaced=0 / bluray_compat=0 / constrained_intra=0 / bframes=8 / b_pyramid=2 / b_adapt=2 / b_bias=0 / direct=3 / weightb=1 / open_gop=0 / weightp=2 / keyint=240 / keyint_min=24 / scenecut=40 / intra_refresh=0 / rc_lookahead=60 / rc=crf / mbtree=1 / crf=18.0 / qcomp=0.60 / qpmin=0 / qpmax=69 / qpstep=4 / vbv_maxrate=62500 / vbv_bufsize=78125 / crf_max=0.0 / nal_hrd=none / filler=0 / ip_ratio=1.40 / aq=1:1.00
Default                          : Yes
Forced                           : No
_STATISTICS_WRITING_APP          : mkvmerge v7.1.0 ('Good Love') 32bit built on Jul 27 2014 12:59:18
_STATISTICS_WRITING_DATE_UTC     : 2020-08-17 20:36:37
_STATISTICS_TAGS                 : BPS DURATION NUMBER_OF_FRAMES NUMBER_OF_BYTES
DURATION                         : 01:57:38.010000000
NUMBER_OF_FRAMES                 : 169223
NUMBER_OF_BYTES                  : 2075092697
Color primaries                  : BT.709-5, BT.1361, IEC 61966-2-4, SMPTE RP177
Transfer characteristics         : BT.709-5, BT.1361
Matrix coefficients              : BT.709-5, BT.1361, IEC 61966-2-4 709, SMPTE RP177

Audio #1
ID                               : 2
Format                           : AC-3
Format/Info                      : Audio Coding 3
Mode extension                   : CM (complete main)
Codec ID                         : A_AC3
Duration                         : 1h 57mn
Bit rate mode                    : Constant
Bit rate                         : 224 Kbps
Channel(s)                       : 2 channels
Channel positions                : Front: L R
Sampling rate                    : 48.0 KHz
Bit depth                        : 16 bits
Compression mode                 : Lossy
Stream size                      : 188 MiB (7%)
Title                            : Doblaje Cines 1986
Language                         : Spanish
Default                          : Yes
Forced                           : Yes

Audio #2
ID                               : 3
Format                           : AC-3
Format/Info                      : Audio Coding 3
Mode extension                   : CM (complete main)
Codec ID                         : A_AC3
Duration                         : 1h 57mn
Bit rate mode                    : Constant
Bit rate                         : 224 Kbps
Channel(s)                       : 2 channels
Channel positions                : Front: L R
Sampling rate                    : 48.0 KHz
Bit depth                        : 16 bits
Compression mode                 : Lossy
Stream size                      : 188 MiB (7%)
Language                         : English
Default                          : No
Forced                           : No

Audio #3
ID                               : 4
Format                           : AC-3
Format/Info                      : Audio Coding 3
Mode extension                   : CM (complete main)
Codec ID                         : A_AC3
Duration                         : 1h 57mn
Bit rate mode                    : Constant
Bit rate                         : 224 Kbps
Channel(s)                       : 2 channels
Channel positions                : Front: L R
Sampling rate                    : 48.0 KHz
Bit depth                        : 16 bits
Compression mode                 : Lossy
Stream size                      : 188 MiB (7%)
Title                            : Doppiaggio originale 1986
Language                         : Italian
Default                          : No
Forced                           : No

Audio #4
ID                               : 5
Format                           : AC-3
Format/Info                      : Audio Coding 3
Mode extension                   : CM (complete main)
Codec ID                         : A_AC3
Duration                         : 1h 57mn
Bit rate mode                    : Constant
Bit rate                         : 224 Kbps
Channel(s)                       : 2 channels
Channel positions                : Front: L R
Sampling rate                    : 48.0 KHz
Bit depth                        : 16 bits
Compression mode                 : Lossy
Stream size                      : 188 MiB (7%)
Title                            : Doublage original 1986
Language                         : French
Default                          : No
Forced                           : No

Text #1
ID                               : 6
Format                           : UTF-8
Codec ID                         : S_TEXT/UTF8
Codec ID/Info                    : UTF-8 Plain Text
Title                            : Forzados
Language                         : Spanish
Default                          : Yes
Forced                           : Yes

Text #2
ID                               : 7
Format                           : UTF-8
Codec ID                         : S_TEXT/UTF8
Codec ID/Info                    : UTF-8 Plain Text
Language                         : Spanish
Default                          : No
Forced                           : No

Text #3
ID                               : 8
Format                           : UTF-8
Codec ID                         : S_TEXT/UTF8
Codec ID/Info                    : UTF-8 Plain Text
Language                         : English
Default                          : No
Forced                           : No

Menu #1
00:00:00.000                     : :Chapter 1
00:06:15.876                     : :Chapter 2
00:08:52.157                     : :Chapter 3
00:13:31.394                     : :Chapter 4
00:19:49.855                     : :Chapter 5
00:22:43.445                     : :Chapter 6
00:23:41.712                     : :Chapter 7
00:29:44.366                     : :Chapter 8
00:34:07.420                     : :Chapter 9
00:38:11.915                     : :Chapter 10
00:40:08.031                     : :Chapter 11
00:48:06.592                     : :Chapter 12
00:50:34.532                     : :Chapter 13
00:53:46.515                     : :Chapter 14
01:00:13.860                     : :Chapter 15
01:04:56.893                     : :Chapter 16
01:06:53.343                     : :Chapter 17
01:16:04.894                     : :Chapter 18
01:22:36.702                     : :Chapter 19
01:27:55.020                     : :Chapter 20
01:37:02.775                     : :Chapter 21
01:39:39.599                     : :Chapter 22
01:44:56.624                     : :Chapter 23
01:49:53.796                     : :Chapter 24

Menu #2
00:00:00.000                     : en:Chapter 1
00:06:15.875                     : en:Chapter 2
00:08:52.114                     : en:Chapter 3
00:13:31.268                     : en:Chapter 4
00:19:49.813                     : en:Chapter 5
00:22:43.403                     : en:Chapter 6
00:23:41.711                     : en:Chapter 7
00:29:44.282                     : en:Chapter 8
00:34:07.378                     : en:Chapter 9
00:38:11.914                     : en:Chapter 10
00:40:07.905                     : en:Chapter 11
00:48:06.508                     : en:Chapter 12
00:50:34.531                     : en:Chapter 13
00:53:46.389                     : en:Chapter 14
01:00:13.776                     : en:Chapter 15
01:04:56.893                     : en:Chapter 16
01:06:53.342                     : en:Chapter 17
01:16:04.893                     : en:Chapter 18
01:22:36.701                     : en:Chapter 19
01:27:55.019                     : en:Chapter 20
01:37:02.733                     : en:Chapter 21
01:39:39.598                     : en:Chapter 22
01:44:56.581                     : en:Chapter 23
01:49:53.628                     : en:Chapter 24


Capturas:

Imagen Imagen
Imagen Imagen
Imagen Imagen
Imagen Imagen
Imagen Imagen


Enlace:
1985 A Chorus Line (Richard Attenborough, 1985) BDRip 720p Cuatrial (Spa (Doblaje Cines 1986)-Eng-Ita-Fre) SE-I.mkv
Otras copias en la web:
DVDRip VE: viewtopic.php?f=1015&t=30631&hilit=chorus+line

ostrata
Mensajes: 2207
Registrado: Mié 24 Mar, 2010 17:29

Re: A Chorus Line (Richard Attenborough, 1985) HD 720p Dual SE

Mensaje por ostrata » Sab 12 Sep, 2020 21:44

Gracias. :)

Saludos.

bolzato
Mensajes: 158
Registrado: Vie 14 Sep, 2012 16:36

Re: A Chorus Line (Richard Attenborough, 1985) HD 720p Dual SE

Mensaje por bolzato » Dom 13 Sep, 2020 09:27

Muchas gracias, DCINE.

Responder