Europa (Lars Von Trier, 1991) HD 1080p Dual SE

Foro orientado a películas de calidad posteriores a 1980. Publica sólo BDRips, DVDRips o TVRips (no Screeners, CAMs, etc.).
Responder
Avatar de Usuario
castleaco
Mensajes: 177
Registrado: Vie 18 Abr, 2014 10:14

Europa (Lars Von Trier, 1991) HD 1080p Dual SE

Mensaje por castleaco » Mié 09 Sep, 2020 22:12

Europa

Lars von Trier, 1991

Imagen

Imagen


Título original
Europa
Año
1991
Duración
114 min.
País
Imagen
Dirección
Lars von Trier
Guion
Lars von Trier, Niels Vorsel, Tómas Gislason
Música
Joachim Holbek
Fotografía
Henning Bendtsen, Jean-Paul Meurisse, Edward Klosinski
Reparto
Jean-Marc Barr, Barbara Sukowa, Udo Kier, Ernst-Hugo Järegård, Erik Mark, Jergen Reenberg, Henning Jensen, Eddie Constantine
Productora
Coproducción Dinamarca-España-Suecia-Francia-Suiza-Alemania; Alicéléo, Det Danske Filminstitut, Eurimages, Fund of the Council of Europe, Institut suisse du film, Nordisk Film, La Sofica Sofinergie, Sofinergie 3, Gérard Mital Productions, Svenska Filminstitutet, UGC Images
Género
Drama. Bélico. Intriga | Drama psicológico. Años 40. Nazismo. Trenes/Metros. Surrealismo. Película de culto
Sinopsis
Tras la Segunda Guerra Mundial (1939-1945), Leo Kessler, un joven americano de origen alemán, se traslada a Alemania para trabajar con su tío en una compañía de ferrocarriles. Su trabajo le permitirá viajar, fascinado, por un país destruido por la guerra; pero también tendrá que enfrentarse poco a poco a los horrores de la barbarie nazi. (FILMAFFINITY)

Premios
1991: Festival de Cannes: Premio del Jurado (ex-aequo), Gran Premio Técnico
1991: Festival de Sitges: Mejor película, mejor fotografía
1992: Premios del Cine Europeo: Nominada a mejor actriz (Barbara Sukowa)


Código: Seleccionar todo

General
Complete name                  : Europa (Lars von Trier, 1991)_WEB-DL_1080p_by_castleaco.mkv
Format                         : Matroska
Format version                 : Version 4 / Version 2
File size                      : 4.80 GiB
Duration                       : 1 h 52 min
Overall bit rate               : 6 129 kb/s
Encoded date                   : UTC 2020-09-09 18:57:01
Writing application            : mkvmerge v49.0.0 ('Sick Of Losing Soulmates') 64-bit
Writing library                : libebml v1.4.0 + libmatroska v1.6.1

Video
ID                             : 1
Format                         : AVC
Format/Info                    : Advanced Video Codec
Format profile                 : High@L4.1
Format settings, CABAC         : Yes
Format settings, RefFrames     : 5 frames
Codec ID                       : V_MPEG4/ISO/AVC
Duration                       : 1 h 52 min
Bit rate                       : 5 374 kb/s
Width                          : 1 920 pixels
Height                         : 804 pixels
Display aspect ratio           : 2.40:1
Frame rate mode                : Constant
Frame rate                     : 23.976 (23976/1000) FPS
Color space                    : YUV
Chroma subsampling             : 4:2:0
Bit depth                      : 8 bits
Scan type                      : Progressive
Bits/(Pixel*Frame)             : 0.145
Stream size                    : 4.21 GiB (88%)
Writing library                : x264 core 157 r2969 d4099dd
Encoding settings              : cabac=1 / ref=5 / deblock=1:-1:-1 / analyse=0x3:0x133 / me=umh / subme=10 / psy=1 / psy_rd=1.00:0.15 / mixed_ref=1 / me_range=24 / chroma_me=1 / trellis=2 / 8x8dct=1 / cqm=0 / deadzone=21,11 / fast_pskip=1 / chroma_qp_offset=-3 / threads=4 / lookahead_threads=1 / sliced_threads=0 / nr=0 / decimate=1 / interlaced=0 / bluray_compat=0 / constrained_intra=0 / bframes=8 / b_pyramid=2 / b_adapt=2 / b_bias=0 / direct=3 / weightb=1 / open_gop=0 / weightp=2 / keyint=240 / keyint_min=23 / scenecut=40 / intra_refresh=0 / rc_lookahead=60 / rc=crf / mbtree=1 / crf=18.0 / qcomp=0.60 / qpmin=0 / qpmax=69 / qpstep=4 / vbv_maxrate=62500 / vbv_bufsize=78125 / crf_max=0.0 / nal_hrd=none / filler=0 / ip_ratio=1.40 / aq=1:1.00
Language                       : English
Default                        : Yes
Forced                         : No

Audio #1
ID                             : 2
Format                         : AC-3
Format/Info                    : Audio Coding 3
Format settings, Endianness    : Big
Codec ID                       : A_AC3
Duration                       : 1 h 52 min
Bit rate mode                  : Constant
Bit rate                       : 256 kb/s
Channel(s)                     : 2 channels
Channel positions              : Front: L R
Sampling rate                  : 48.0 kHz
Frame rate                     : 31.250 FPS (1536 SPF)
Bit depth                      : 16 bits
Compression mode               : Lossy
Delay relative to video        : 20 ms
Stream size                    : 205 MiB (4%)
Title                          : esp1_tri_pictures
Language                       : Spanish
Service kind                   : Complete Main
Default                        : Yes
Forced                         : Yes

Audio #2
ID                             : 3
Format                         : AC-3
Format/Info                    : Audio Coding 3
Format settings, Endianness    : Big
Codec ID                       : A_AC3
Duration                       : 1 h 52 min
Bit rate mode                  : Constant
Bit rate                       : 192 kb/s
Channel(s)                     : 2 channels
Channel positions              : Front: L R
Sampling rate                  : 48.0 kHz
Frame rate                     : 31.250 FPS (1536 SPF)
Bit depth                      : 16 bits
Compression mode               : Lossy
Delay relative to video        : 20 ms
Stream size                    : 154 MiB (3%)
Title                          : esp2_filmax
Language                       : Spanish
Service kind                   : Complete Main
Default                        : No
Forced                         : No

Audio #3
ID                             : 4
Format                         : AC-3
Format/Info                    : Audio Coding 3
Format settings, Endianness    : Big
Codec ID                       : A_AC3
Duration                       : 1 h 52 min
Bit rate mode                  : Constant
Bit rate                       : 192 kb/s
Channel(s)                     : 2 channels
Channel positions              : Front: L R
Sampling rate                  : 48.0 kHz
Frame rate                     : 31.250 FPS (1536 SPF)
Bit depth                      : 16 bits
Compression mode               : Lossy
Delay relative to video        : 20 ms
Stream size                    : 154 MiB (3%)
Title                          : eng
Language                       : English
Service kind                   : Complete Main
Default                        : No
Forced                         : No

Audio #4
ID                             : 5
Format                         : MPEG Audio
Format version                 : Version 1
Format profile                 : Layer 3
Mode                           : Joint stereo
Mode extension                 : MS Stereo
Codec ID                       : A_MPEG/L3
Codec ID/Hint                  : MP3
Duration                       : 1 h 52 min
Bit rate mode                  : Constant
Bit rate                       : 112 kb/s
Channel(s)                     : 2 channels
Sampling rate                  : 44.1 kHz
Frame rate                     : 38.281 FPS (1152 SPF)
Compression mode               : Lossy
Delay relative to video        : 23 ms
Stream size                    : 89.9 MiB (2%)
Title                          : audio_comentario
Writing library                : LAME3.98.2
Language                       : Danish
Default                        : No
Forced                         : No

Text #1
ID                             : 6
Format                         : UTF-8
Codec ID                       : S_TEXT/UTF8
Codec ID/Info                  : UTF-8 Plain Text
Duration                       : 1 h 46 min
Bit rate                       : 51 b/s
Count of elements              : 1101
Stream size                    : 40.2 KiB (0%)
Title                          : esp
Language                       : Spanish
Default                        : No
Forced                         : No

Text #2
ID                             : 7
Format                         : UTF-8
Codec ID                       : S_TEXT/UTF8
Codec ID/Info                  : UTF-8 Plain Text
Duration                       : 1 h 36 min
Bit rate                       : 19 b/s
Count of elements              : 369
Stream size                    : 13.9 KiB (0%)
Title                          : eng
Language                       : English
Default                        : No
Forced                         : No

Text #3
ID                             : 8
Format                         : UTF-8
Codec ID                       : S_TEXT/UTF8
Codec ID/Info                  : UTF-8 Plain Text
Duration                       : 1 h 51 min
Bit rate                       : 92 b/s
Count of elements              : 1327
Stream size                    : 75.6 KiB (0%)
Title                          : audio_comentario
Language                       : English
Default                        : No
Forced                         : No



Capturas:
Imagen

Imagen

Imagen

Imagen

Imagen

Imagen

Imagen

Fuente rutracker y vídeo ajustado a 23.976fps.

El resto del contenido del mkv se ha obtenido de una copia que yo mismo compartí hace tiempo aquí: viewtopic.php?f=1015&t=13050&p=898598&h ... er#p898547

"He añadido y sincronizado el primer doblaje de tri-pictures (de una cinta vhs), el segundo doblaje de filmax y, por supuesto, el audio original y otro de audiocomentario.

Subtitulos español, inglés e inglés también para el audiocomentario."


Europa (Lars von Trier, 1991)_WEB-DL_1080p_by_castleaco.mkv (4.80GB)

Imagen

Avatar de Usuario
eulsus
Mensajes: 1400
Registrado: Vie 18 May, 2007 10:41
Ubicación: La Palma

Re: Europa (Lars Von Trier, 1991) WEBRip 1080p DUAL SE

Mensaje por eulsus » Mié 09 Sep, 2020 22:45

Castleaco, gracias por este aporte bien completo. :sonrisa:

Veo que has cambiado la velocidad del vídeo para adaptarla a los audios de tu anterior trabajo que corría a 23,976 fps (el primer doblaje de tri-pictures (de una cinta vhs), el segundo doblaje de filmax, el audio original y un audiocomentario).

Lo mejor, en mi opinión, es que no hubieras tocado el frame rate del vídeo de rutracker de 25,000 fps y que lo que hubieras es modificado la velocidad de todos esos audios, menos del audio en inglés que estaba en el vídeo de rutracker, que ya te valía directamente sin necesidad de recurrir a la pista VO de tu algorip. Además que la calidad de esa VO probablemente sea algo mejor que la de tu montaje, porque se trata de un AAC 192 kbps VBR por tu AC-3 a 192 kbps.
Esto te lo comento porque los audios aguantan carros y carretas, pero los vídeos son muy finos y cuanto menos se les toquetee mejor.

Supongo que lo habrás hecho así por los subtítulos, pero los hubieras cambiado también de frame rate de 23,976 a 25,000 y listo.

Un saludo, amigo.
Imagen
Antonio García-Trevijano Forte (1927-2018)
"Para que yo sea libre, todos tienen que ser libres"

Abstención activa hasta que haya Libertad Colectiva

joramor
Mensajes: 1648
Registrado: Vie 05 Nov, 2010 19:55

Re: Europa (Lars Von Trier, 1991) WEBRip 1080p DUAL SE

Mensaje por joramor » Mié 09 Sep, 2020 23:04

Muchas gracias!

Avatar de Usuario
eulsus
Mensajes: 1400
Registrado: Vie 18 May, 2007 10:41
Ubicación: La Palma

Re: Europa (Lars Von Trier, 1991) WEBRip 1080p DUAL SE

Mensaje por eulsus » Mié 09 Sep, 2020 23:06

Cambia en el título webrip por HD antes que lo haga Jacob. (:-)
Imagen
Antonio García-Trevijano Forte (1927-2018)
"Para que yo sea libre, todos tienen que ser libres"

Abstención activa hasta que haya Libertad Colectiva

Avatar de Usuario
janca
Mensajes: 2187
Registrado: Dom 20 Dic, 2009 09:31

Re: Europa (Lars Von Trier, 1991) HD 1080p Dual SE

Mensaje por janca » Jue 10 Sep, 2020 07:48

Muchas gracias Castleaco

Avatar de Usuario
castleaco
Mensajes: 177
Registrado: Vie 18 Abr, 2014 10:14

Re: Europa (Lars Von Trier, 1991) WEBRip 1080p DUAL SE

Mensaje por castleaco » Jue 10 Sep, 2020 16:59

eulsus escribió:
Mié 09 Sep, 2020 22:45
Castleaco, gracias por este aporte bien completo. :sonrisa:

Veo que has cambiado la velocidad del vídeo para adaptarla a los audios de tu anterior trabajo que corría a 23,976 fps (el primer doblaje de tri-pictures (de una cinta vhs), el segundo doblaje de filmax, el audio original y un audiocomentario).

Lo mejor, en mi opinión, es que no hubieras tocado el frame rate del vídeo de rutracker de 25,000 fps y que lo que hubieras es modificado la velocidad de todos esos audios, menos del audio en inglés que estaba en el vídeo de rutracker, que ya te valía directamente sin necesidad de recurrir a la pista VO de tu algorip. Además que la calidad de esa VO probablemente sea algo mejor que la de tu montaje, porque se trata de un AAC 192 kbps VBR por tu AC-3 a 192 kbps.
Esto te lo comento porque los audios aguantan carros y carretas, pero los vídeos son muy finos y cuanto menos se les toquetee mejor.

Supongo que lo habrás hecho así por los subtítulos, pero los hubieras cambiado también de frame rate de 23,976 a 25,000 y listo.

Un saludo, amigo.
Hola eulsus. Pensaba hacer lo que comentas pero me decanté por variar el framerate porque me gusta que sea lo más aproximado a como se vio en una pantalla de cines. Una manía, porque en realidad se puede disfrutar de la película igualmente. Pongo algunas comparativas, aunque a lo mejor el servidor donde están alojadas las imágenes no sea el más idóneo para eso. En primer lugar rutracker y después mi codificación:

Imagen
Imagen

Imagen
Imagen

Imagen
Imagen


"Cambia en el título webrip por HD antes que lo haga Jacob. "

Tarde. Jacob creo que ha corregido cada entrada que he hecho... :wacky:

teoremista
Mensajes: 390
Registrado: Vie 18 May, 2007 10:56

Re: Europa (Lars Von Trier, 1991) HD 1080p Dual SE

Mensaje por teoremista » Jue 10 Sep, 2020 20:34

Gracias!!

Avatar de Usuario
duegno
Mensajes: 309
Registrado: Dom 28 Ago, 2011 13:28

Re: Europa (Lars Von Trier, 1991) HD 1080p Dual SE

Mensaje por duegno » Sab 12 Sep, 2020 10:27

Gracias por otra peli interesante.

Avatar de Usuario
Dardo
Arrow Thrower Clown
Mensajes: 16583
Registrado: Dom 19 Oct, 2003 02:00
Ubicación: Entre Encinas y Dolomías

Re: Europa (Lars Von Trier, 1991) HD 1080p Dual SE

Mensaje por Dardo » Dom 13 Sep, 2020 12:25

castleaco escribió:
Jue 10 Sep, 2020 16:59
eulsus escribió:
Mié 09 Sep, 2020 22:45
Castleaco, gracias por este aporte bien completo. :sonrisa:

Veo que has cambiado la velocidad del vídeo para adaptarla a los audios de tu anterior trabajo que corría a 23,976 fps (el primer doblaje de tri-pictures (de una cinta vhs), el segundo doblaje de filmax, el audio original y un audiocomentario).

Lo mejor, en mi opinión, es que no hubieras tocado el frame rate del vídeo de rutracker de 25,000 fps y que lo que hubieras es modificado la velocidad de todos esos audios, menos del audio en inglés que estaba en el vídeo de rutracker, que ya te valía directamente sin necesidad de recurrir a la pista VO de tu algorip. Además que la calidad de esa VO probablemente sea algo mejor que la de tu montaje, porque se trata de un AAC 192 kbps VBR por tu AC-3 a 192 kbps.
Esto te lo comento porque los audios aguantan carros y carretas, pero los vídeos son muy finos y cuanto menos se les toquetee mejor.

Supongo que lo habrás hecho así por los subtítulos, pero los hubieras cambiado también de frame rate de 23,976 a 25,000 y listo.

Un saludo, amigo.
Hola eulsus. Pensaba hacer lo que comentas pero me decanté por variar el framerate porque me gusta que sea lo más aproximado a como se vio en una pantalla de cines. Una manía, porque en realidad se puede disfrutar de la película igualmente. Pongo algunas comparativas, aunque a lo mejor el servidor donde están alojadas las imágenes no sea el más idóneo para eso. En primer lugar rutracker y después mi codificación:
Siempre lo más importante es velocidad de vídeo "original" es decir como se vió en el cine, y que sean los audios los que se modifiquen a lo que se precise. :wink:

Avatar de Usuario
Jacob
Exprópiese
Mensajes: 9725
Registrado: Jue 01 Jul, 2004 02:00
Ubicación: Where no one has gone before!

Re: Europa (Lars Von Trier, 1991) WEBRip 1080p DUAL SE

Mensaje por Jacob » Dom 13 Sep, 2020 16:51

castleaco escribió:
Jue 10 Sep, 2020 16:59
"Cambia en el título webrip por HD antes que lo haga Jacob. "

Tarde. Jacob creo que ha corregido cada entrada que he hecho... :wacky:
:bigrazz:

Responder