Página 1 de 1

El destripador de Nueva York (Lucio Fulci, 1982) HD 720p Dual SE

Publicado: Mar 03 Feb, 2015 11:22
por SitherKiller
EL DESTRIPADOR DE NUEVA YORK (DUAL + SUBTÍTULOS) (1982)
Imagen

FICHA DE LA PELÍCULA

TITULO ORIGINAL: Lo squartatore di New York / New York Ripper
AÑO DE PRODUCCIÓN: 1982
NACIONALIDAD: Italia
DIRECTOR: Lucio Fulci
REPARTO: Jack Hedley, Almanta Suska, Howard Ross, Andrea Occhipinti, Alexandra Delli Colli, Paolo Malco, Cinzia de Ponti, Daniela Doria, Cosimo Cinieri y Lucio Fulci
SIPNOSIS: Varias mujeres están siendo salvajemente asesinadas en Nueva York. El policía Jack Hedley va tras el suspuesto asesino en serie, pero la única pista que tiene es que el criminal habla como si fuera un pato. (DECINE21)
Imagen
DATOS DEL RIPEO

FUENTE: Blu-Ray Septiembre 2009 ''The New York Ripper'' editada por Blue Underground
VIDEO: H264 MP4 AVC
AUDIO: AC3 192kb Mono Castellano, AC3 384kb 5.1 Inglés
RESOLUCIÓN: 1280x544
PROPORCIÓN: 2.35:1
FRAMES: 23.976 fps
DURACIÓN: 01:32:59
PESO: 3.73gb
SUBTÍTULOS: Se incluyen en castellano e inglés.

MEDIA INFO
Spoiler: mostrar
General
Unique ID : 171237745354111844663618913933365069010 (0x80D330ACEDC59AC3B441FC79D33FC4D2)
Complete name : D:\MONTAJE\TERMINADAS\El.destripador.de.Nueva.York.1982.(BDRip.HD.720p.AC3.Dual.[Spanish.English].Subs.[Castellano.Ingles]).By.SitherKiller.mkv
Format : Matroska
Format version : Version 4 / Version 2
File size : 3.73 GiB
Duration : 1h 32mn
Overall bit rate : 5 747 Kbps
Encoded date : UTC 2014-10-09 19:49:49
Writing application : mkvmerge v6.1.0 ('Old Devil') built on Mar 4 2013 09:10:42
Writing library : libebml v1.3.0 + libmatroska v1.4.0

Video
ID : 1
Format : AVC
Format/Info : Advanced Video Codec
Format profile : High@L4.1
Format settings, CABAC : Yes
Format settings, ReFrames : 5 frames
Codec ID : V_MPEG4/ISO/AVC
Duration : 1h 32mn
Bit rate : 5 169 Kbps
Width : 1 280 pixels
Height : 544 pixels
Display aspect ratio : 2.35:1
Frame rate mode : Constant
Frame rate : 23.976 fps
Color space : YUV
Chroma subsampling : 4:2:0
Bit depth : 8 bits
Scan type : Progressive
Bits/(Pixel*Frame) : 0.310
Stream size : 3.28 GiB (88%)
Writing library : x264 core 130 r2273 b3065e6
Encoding settings : cabac=1 / ref=5 / deblock=1:-1:-1 / analyse=0x3:0x113 / me=umh / subme=8 / psy=1 / psy_rd=1.00:0.10 / mixed_ref=1 / me_range=16 / chroma_me=1 / trellis=1 / 8x8dct=1 / cqm=0 / deadzone=21,11 / fast_pskip=1 / chroma_qp_offset=-3 / threads=6 / lookahead_threads=1 / sliced_threads=0 / nr=0 / decimate=1 / interlaced=0 / bluray_compat=0 / constrained_intra=0 / bframes=3 / b_pyramid=2 / b_adapt=2 / b_bias=0 / direct=3 / weightb=1 / open_gop=0 / weightp=2 / keyint=250 / keyint_min=23 / scenecut=40 / intra_refresh=0 / rc_lookahead=50 / rc=2pass / mbtree=1 / bitrate=5169 / ratetol=1.0 / qcomp=0.60 / qpmin=0 / qpmax=69 / qpstep=4 / cplxblur=20.0 / qblur=0.5 / ip_ratio=1.40 / aq=1:1.00
Language : English
Default : Yes
Forced : No

Audio #1
ID : 2
Format : AC-3
Format/Info : Audio Coding 3
Mode extension : CM (complete main)
Format settings, Endianness : Big
Codec ID : A_AC3
Duration : 1h 32mn
Bit rate mode : Constant
Bit rate : 192 Kbps
Channel(s) : 2 channels
Channel positions : Front: L R
Sampling rate : 48.0 KHz
Bit depth : 16 bits
Compression mode : Lossy
Stream size : 128 MiB (3%)
Language : Spanish
Default : Yes
Forced : No

Audio #2
ID : 3
Format : AC-3
Format/Info : Audio Coding 3
Mode extension : CM (complete main)
Format settings, Endianness : Big
Codec ID : A_AC3
Duration : 1h 32mn
Bit rate mode : Constant
Bit rate : 384 Kbps
Channel(s) : 6 channels
Channel positions : Front: L C R, Side: L R, LFE
Sampling rate : 48.0 KHz
Bit depth : 16 bits
Compression mode : Lossy
Stream size : 255 MiB (7%)
Language : English
Default : No
Forced : No

Text #1
ID : 4
Format : UTF-8
Codec ID : S_TEXT/UTF8
Codec ID/Info : UTF-8 Plain Text
Language : Spanish
Default : Yes
Forced : No

Text #2
ID : 5
Format : UTF-8
Codec ID : S_TEXT/UTF8
Codec ID/Info : UTF-8 Plain Text
Language : Spanish
Default : No
Forced : No

Text #3
ID : 6
Format : UTF-8
Codec ID : S_TEXT/UTF8
Codec ID/Info : UTF-8 Plain Text
Language : English
Default : No
Forced : No
CAPTURAS
Imagen
Imagen
Imagen
Imagen
Imagen
Imagen

ENLACES

PELICULA: El.destripador.de.Nueva.York.1982.(BDRip.HD.720p.AC3.Dual.(Spanish.English).Subs.(Castellano.Ingles)).By.SitherKiller.mkv

A disfrutar de la peli :D :D :D :D :D

Re: El destripador de Nueva York (Lucio Fulci, 1982) HD 720p Dual SE

Publicado: Mar 03 Feb, 2015 12:52
por hiru
Estupendo.

Re: El destripador de Nueva York (Lucio Fulci, 1982) HD 720p Dual SE

Publicado: Mar 03 Feb, 2015 13:45
por eddelon
Muchas gracias Sither por traerla :D

Re: El destripador de Nueva York (Lucio Fulci, 1982) HD 720p Dual SE

Publicado: Mar 03 Feb, 2015 14:44
por javisambo
Central llamando a Luis! (cambio)
Central llamando a Luis! (cambio)

Luis! Responda!

Imagen

Muchas gracias Sither :P

Re: El destripador de Nueva York (Lucio Fulci, 1982) HD 720p Dual SE

Publicado: Mar 03 Feb, 2015 14:54
por Dardo
Tranquilo javi, que a Luis le llega un aviso al email cuando hay una publicación con "carne"...

Muy buen trabajo Sither, recuerdo haber leído una referencia sobre esta película, allí el título era "descuartizador de Nueva York" y analizaban la película como una parodia de Fulci hacia el cine giallo, por lo que resulta ya rizar el rizo, asi que interesantísima claro.

Re: El destripador de Nueva York (Lucio Fulci, 1982) HD 720p Dual SE

Publicado: Mar 03 Feb, 2015 15:26
por jomime
Descargada y pasada casi completita a santi y su increible mula chupóptera :shock:

Re: El destripador de Nueva York (Lucio Fulci, 1982) HD 720p Dual SE

Publicado: Mar 03 Feb, 2015 15:47
por santi
jomime escribió:Descargada y pasada casi completita a santi y su increible mula chupóptera :shock:
Sin casi.

He visto por ahí un down de +900, todo tuyo. :o

Ayer pinché la del Coen, me bajé a merendar y cuando subí ya estaba verde (y no meriendo cordero asao).

Bueno, que me voy a por pinchos. Así que modera la generosidad, jomi, slow, slow, que si no el personal pilla y se larga corriendo.

Thx mil, Sither.

Re: El destripador de Nueva York (Lucio Fulci, 1982) HD 720p Dual SE

Publicado: Mar 03 Feb, 2015 16:34
por jcarlos7840
Shither eres el Nº1, :plas:

Re: El destripador de Nueva York (Lucio Fulci, 1982) HD 720p Dual SE

Publicado: Mar 03 Feb, 2015 17:34
por LuisNieto
Javi, estás salido, y lo peor de todo es que haces parecer que el salido soy yo :roll:

Gracias Sither, interesante película.
Spoiler: mostrar
Juas!!!, fíjate lo que he encontrao por internet:

Imagen

El encaje es el mismo, así que como loco estoy por ver la escena entera en la película :mrgreen: :mrgreen: :mrgreen: :mrgreen:

Re: El destripador de Nueva York (Lucio Fulci, 1982) HD 720p Dual SE

Publicado: Mar 03 Feb, 2015 19:08
por Spanish Jhonny
¿Éste no es el que detuvo Gila a indirectas, no?
Muchas gracias Sither

Re: El destripador de Nueva York (Lucio Fulci, 1982) HD 720p Dual SE

Publicado: Mié 04 Feb, 2015 00:41
por Antígono
Gracias SitherKiller, las chicas... digo las capturas se ven muy bien :bigrazz:

Re: El destripador de Nueva York (Lucio Fulci, 1982) HD 720p Dual SE

Publicado: Mar 13 Dic, 2016 09:31
por henri1959
Muchas gracias Sither

Re: El destripador de Nueva York (Lucio Fulci, 1982) HD 720p Dual SE

Publicado: Mar 30 Jun, 2020 02:24
por Ragepil
Muchas gracias! A ver si conecta alguien, me encantaría tenerla.

Re: El destripador de Nueva York (Lucio Fulci, 1982) HD 720p Dual SE

Publicado: Mar 30 Jun, 2020 14:39
por Dardo
Qué será del bueno de Sitherkiller, ofreció muchos trabajos siempre interesantes, y es una pena que lo tengamos desaparecido.

A ver si nos dice algo :wink:
Ragepil escribió:
Mar 30 Jun, 2020 02:24
Muchas gracias! A ver si conecta alguien, me encantaría tenerla.
Fuentes parece que hay, tendrás que echarle paciencia y que se apunte más gente y seguro que te haces con ella. :wink:

Re: El destripador de Nueva York (Lucio Fulci, 1982) HD 720p Dual SE

Publicado: Mar 30 Jun, 2020 16:40
por ostrata
Ragepil escribió:
Mar 30 Jun, 2020 02:24
Muchas gracias! A ver si conecta alguien, me encantaría tenerla.
Va. :)

Saludos.

Re: El destripador de Nueva York (Lucio Fulci, 1982) HD 720p Dual SE

Publicado: Mié 01 Jul, 2020 12:09
por elhombretranquilo
Aprovecho!

Re: El destripador de Nueva York (Lucio Fulci, 1982) HD 720p Dual SE

Publicado: Jue 02 Jul, 2020 22:43
por Ragepil
ostrata escribió:
Mar 30 Jun, 2020 16:40
Ragepil escribió:
Mar 30 Jun, 2020 02:24
Muchas gracias! A ver si conecta alguien, me encantaría tenerla.
Va. :)

Saludos.

¡Gracias!