Happiness (Todd Solondz, 1998) DVDRip Dual SE

Foro orientado a películas de calidad posteriores a 1980. Publica sólo BDRips, DVDRips o TVRips (no Screeners, CAMs, etc.).
Avatar de Usuario
Sarmale
Mensajes: 2840
Registrado: Dom 02 Oct, 2005 02:00

Re: Happiness (Todd Solondz, 1998) DVDRip Dual SE

Mensaje por Sarmale » Lun 07 Mar, 2011 18:37

Pinchada, gracias.
Elige en amistad
a esas personas,
que sabes que no te van a dar disgustos
hasta el día de su muerte.

Gloria Fuertes

Avatar de Usuario
DMMD
Mensajes: 1885
Registrado: Lun 27 Feb, 2012 14:16

Happiness (Todd Solondz, 1998) DVDRip Dual SE

Mensaje por DMMD » Sab 04 Ene, 2020 13:25

Imagen

Imagen



Happiness


Título original Happiness
Año 1998
Duración 139 min.
País Imagen
Dirección Todd Solondz
Guion Todd Solondz
Música Robbie Kondor
Fotografía Maryse Alberti
Reparto
Jane Adams, Lara Flynn Boyle, Philip Seymour Hoffman, Cynthia Stevenson, Dylan Baker, Ben Gazzara, Louise Lasser, Elizabeth Ashley, Jared Harris, Jon Lovitz, Camryn Manheim, Rufus Read, Molly Shannon

Productora Good Machine / Killer Films
Género Drama. Comedia | Comedia negra. Comedia dramática. Historias cruzadas. Cine independiente USA. Abusos sexuales
Sinopsis
Irónica, crítica e inmisericorde comedia sobre los miembros de una familia de un suburbio de New Jersey. Un matrimonio a punto de divorciarse, tres hermanas y sus maridos, novios y amantes ocasionales. Tras una aparente normalidad, todos los personajes ocultan algún secreto y alguna que otra perversidad. (FILMAFFINITY)

Premios
1998: Festival de Cannes: Premio FIPRESCI
1998: Festival de Toronto: Mejor película
1998: National Board of Review: Mejor reparto
1998: Globos de Oro: Nominada al Mejor guión
1998: Círculo de Críticos de Nueva York: 3 nominaciones inc. Mejor película
1998: Premios Independent Spirit: 3 nominaciones incluyendo mejor director




Vídeo:

Encode partiendo del Dvd (Pal), retocando la imagen para darle algo mas de consistencia.

Imagen Imagen Imagen Imagen Imagen Imagen Imagen Imagen Imagen Imagen Imagen Imagen


Código: Seleccionar todo

General
Unique ID                                : 148428482599804054736128008297142417563 (0x6FAA49324EE653E3B9DA78F168B9F89B)
Complete name                            : D:\Incoming\1998-Happiness.DVDx264.AC3.(DMMD).mkv
Format                                   : Matroska
Format version                           : Version 4
File size                                : 1.80 GiB
Duration                                 : 2 h 19 min
Overall bit rate                         : 1 838 kb/s
Movie name                               : 1998-Happiness.DVDx264.AC3.[DMMD]
Encoded date                             : UTC 2020-01-04 11:31:37
Writing application                      : mkvmerge v42.0.0 ('Overtime') 64-bit
Writing library                          : libebml v1.3.10 + libmatroska v1.5.2
Attachments                              : 1

Video
ID                                       : 1
Format                                   : AVC
Format/Info                              : Advanced Video Codec
Format profile                           : High@L4.1
Format settings                          : CABAC / 16 Ref Frames
Format settings, CABAC                   : Yes
Format settings, RefFrames               : 16 frames
Codec ID                                 : V_MPEG4/ISO/AVC
Duration                                 : 2 h 19 min
Bit rate                                 : 1 452 kb/s
Width                                    : 718 pixels
Height                                   : 416 pixels
Display aspect ratio                     : 1.85:1
Original display aspect ratio            : 1.85:1
Frame rate mode                          : Constant
Frame rate                               : 23.976 (24000/1001) FPS
Color space                              : YUV
Chroma subsampling                       : 4:2:0
Bit depth                                : 8 bits
Scan type                                : Progressive
Bits/(Pixel*Frame)                       : 0.203
Stream size                              : 1.42 GiB (79%)
Writing library                          : x264 core 152 r2851kMod ba24899
Encoding settings                        : cabac=1 / ref=16 / deblock=1:-3:-3 / analyse=0x3:0x133 / me=umh / subme=11 / psy=1 / fade_compensate=0.00 / psy_rd=1.00:0.00 / mixed_ref=1 / me_range=24 / chroma_me=1 / trellis=2 / 8x8dct=1 / cqm=0 / deadzone=21,11 / fast_pskip=0 / chroma_qp_offset=-2 / threads=6 / lookahead_threads=1 / sliced_threads=0 / nr=0 / decimate=0 / interlaced=0 / bluray_compat=0 / constrained_intra=0 / bframes=13 / b_pyramid=2 / b_adapt=2 / b_bias=0 / direct=3 / weightb=1 / open_gop=0 / weightp=2 / keyint=250 / keyint_min=23 / scenecut=40 / intra_refresh=0 / rc=crf / mbtree=0 / crf=19.5000 / qcomp=0.60 / qpmin=0 / qpmax=69 / qpstep=4 / ip_ratio=1.40 / pb_ratio=1.30 / aq=3:0.50
Language                                 : English
Default                                  : Yes
Forced                                   : No

Audio #1
ID                                       : 2
Format                                   : AC-3
Format/Info                              : Audio Coding 3
Commercial name                          : Dolby Digital
Codec ID                                 : A_AC3
Duration                                 : 2 h 19 min
Bit rate mode                            : Constant
Bit rate                                 : 192 kb/s
Channel(s)                               : 2 channels
Channel layout                           : L R
Sampling rate                            : 48.0 kHz
Frame rate                               : 31.250 FPS (1536 SPF)
Bit depth                                : 16 bits
Compression mode                         : Lossy
Stream size                              : 192 MiB (10%)
Language                                 : English
Service kind                             : Complete Main
Default                                  : Yes
Forced                                   : No

Audio #2
ID                                       : 3
Format                                   : AC-3
Format/Info                              : Audio Coding 3
Commercial name                          : Dolby Digital
Codec ID                                 : A_AC3
Duration                                 : 2 h 19 min
Bit rate mode                            : Constant
Bit rate                                 : 192 kb/s
Channel(s)                               : 2 channels
Channel layout                           : L R
Sampling rate                            : 48.0 kHz
Frame rate                               : 31.250 FPS (1536 SPF)
Bit depth                                : 16 bits
Compression mode                         : Lossy
Stream size                              : 192 MiB (10%)
Language                                 : Spanish
Service kind                             : Complete Main
Default                                  : No
Forced                                   : No

Text #1
ID                                       : 4
Format                                   : UTF-8
Codec ID                                 : S_TEXT/UTF8
Codec ID/Info                            : UTF-8 Plain Text
Duration                                 : 2 h 13 min
Bit rate                                 : 38 b/s
Count of elements                        : 1635
Stream size                              : 38.1 KiB (0%)
Language                                 : Spanish
Default                                  : No
Forced                                   : No

Text #2
ID                                       : 5
Format                                   : UTF-8
Codec ID                                 : S_TEXT/UTF8
Codec ID/Info                            : UTF-8 Plain Text
Duration                                 : 45 min 7 s
Bit rate                                 : 2 b/s
Count of elements                        : 30
Stream size                              : 993 Bytes (0%)
Title                                    : Forzados
Language                                 : Spanish
Default                                  : No
Forced                                   : No

Text #3
ID                                       : 6
Format                                   : UTF-8
Codec ID                                 : S_TEXT/UTF8
Codec ID/Info                            : UTF-8 Plain Text
Duration                                 : 2 h 13 min
Bit rate                                 : 41 b/s
Count of elements                        : 1628
Stream size                              : 40.4 KiB (0%)
Language                                 : English
Default                                  : No
Forced                                   : No

Menu
00:00:00.000                             : :Chapter 1
00:15:21.120                             : :Chapter 2
00:23:07.680                             : :Chapter 3
00:37:08.880                             : :Chapter 4
00:49:57.360                             : :Chapter 5
01:00:22.920                             : :Chapter 6
01:13:11.640                             : :Chapter 7
01:25:04.080                             : :Chapter 8
01:33:17.880                             : :Chapter 9
01:44:36.600                             : :Chapter 10
01:54:53.640                             : :Chapter 11
02:04:25.560                             : :Chapter 12


Encode DVDx264 Vs Dvd (Pal) Vs Dvd (Ntsc)

Imagen
Imagen
Imagen


Audio y sub:

Extraídos del propio Dvd.



CAPTURAS

Imagen
Imagen
Imagen
Imagen
Imagen
Imagen
Imagen
Imagen
Imagen




Enlaces de descarga

Imagen

ed2k link1998-Happiness.DVDx264.AC3.(DMMD).mkv ed2k link stats

Avatar de Usuario
Spanish Jhonny
Mensajes: 3315
Registrado: Mar 18 Sep, 2012 16:01

Re: Happiness (Todd Solondz, 1998) DVDRip Dual SE

Mensaje por Spanish Jhonny » Sab 04 Ene, 2020 16:15

Fantástico DMMD, muchas gracias y que tengas un estupendo 2020
Saludos

ostrata
Mensajes: 2488
Registrado: Mié 24 Mar, 2010 17:29

Re: Happiness (Todd Solondz, 1998) DVDRip Dual SE

Mensaje por ostrata » Sab 04 Ene, 2020 18:04

Gracias. :)

Saludos.

Avatar de Usuario
eulsus
Mensajes: 2011
Registrado: Vie 18 May, 2007 10:41
Ubicación: La Palma

Re: Happiness (Todd Solondz, 1998) DVDRip Dual SE

Mensaje por eulsus » Sab 04 Ene, 2020 19:18

Muchas gracias, magister. :D

Significativa mejora con respecto al DVD original. :plas: :plas:
Imagen
Antonio García-Trevijano Forte (1927-2018)
"Para que yo sea libre, todos tienen que ser libres"

Abstención activa hasta que haya Libertad Colectiva

Avatar de Usuario
Kaput795
Mensajes: 119
Registrado: Mié 08 Abr, 2015 14:35

Re: Happiness (Todd Solondz, 1998) DVDRip Dual SE

Mensaje por Kaput795 » Lun 01 Nov, 2021 12:44

Muchas gracias por este cuidado trabajo DMMD. Parece que el archivo goza de buena salud :)

Responder