Jeanne la Pucelle (Jacques Rivette, 1994) HD 1080p VOSE

Foro orientado a películas de calidad posteriores a 1980. Publica sólo BDRips, DVDRips o TVRips (no Screeners, CAMs, etc.).
Responder
Avatar de Usuario
Teeninlove
Mensajes: 1595
Registrado: Dom 25 Jul, 2004 02:00

Jeanne la Pucelle (Jacques Rivette, 1994) HD 1080p VOSE

Mensaje por Teeninlove » Vie 23 Feb, 2024 20:53

Jeanne la Pucelle I & II / Juana de Arco I & II (Jacques Rivette, 1994)

IMDb

IMDb

filmaffinity

filmaffinity


Imagen





Sinopsis:
Guerra de los Cien Años (siglos XIV y XV). Tras abandonar su aldea natal, Juana de Arco (1412-1431) convence a un oficial para que la conduzca ante el Delfín de Francia, el futuro Carlos VII. Tras entrevistarse con él consigue, gracias a su coraje y a su fe, que le proporcione tropas para levantar el cerco de Orleáns. El mismo año se rodó la segunda parte titulada "Juana de Arco II: Las prisiones". (FILMAFFINITY)


Continuación de "Juana de Arco I: Las batallas". Después de la derrota francesa en la batalla de Orleáns, Juana de Arco (1412-1431) es arrestada y enviada a prisión. En dos procesos separados, es acusada de herejía y condenada a morir en la hoguera. (FILMAFFINITY)



Capturas:

ImagenImagen
ImagenImagen
ImagenImagen
ImagenImagen
ImagenImagen
ImagenImagen




Datos Técnicos:
Spoiler: mostrar

General
Unique ID : 176489115768938461116557265938623319244 (0x84C6913A08C4BB70D6D33BE196814CCC)
Complete name : C:\Jeanne.la.Pucelle.I.-.Les.Batailles.1994.1080p.Bluray.AC3.5.1.x264-SaL VOSE.mkv
Format : Matroska
Format version : Version 4
File size : 14.9 GiB
Duration : 2 h 40 min
Overall bit rate : 13.3 Mb/s
Movie name : Jeanne la Pucelle I - Les batailles AKA Joan the Maid 1: The Battles (1994) @ SaL
Encoded date : UTC 2024-02-13 18:20:52
Writing application : mkvmerge v82.0 ('I'm The President') 64-bit
Writing library : libebml v1.4.5 + libmatroska v1.7.1

Video
ID : 1
Format : AVC
Format/Info : Advanced Video Codec
Format profile : High@L4.1
Format settings : CABAC / 4 Ref Frames
Format settings, CABAC : Yes
Format settings, Reference frames : 4 frames
Codec ID : V_MPEG4/ISO/AVC
Duration : 2 h 40 min
Bit rate : 12.7 Mb/s
Width : 1 920 pixels
Height : 1 038 pixels
Display aspect ratio : 1.85:1
Frame rate mode : Constant
Frame rate : 24.000 FPS
Color space : YUV
Chroma subsampling : 4:2:0
Bit depth : 8 bits
Scan type : Progressive
Bits/(Pixel*Frame) : 0.265
Stream size : 14.2 GiB (95%)
Writing library : x264 core 157 r2935 545de2f
Encoding settings : cabac=1 / ref=4 / deblock=1:-3:-3 / analyse=0x3:0x133 / me=umh / subme=10 / psy=1 / psy_rd=1.08:0.16 / mixed_ref=1 / me_range=32 / chroma_me=1 / trellis=2 / 8x8dct=1 / cqm=0 / deadzone=21,11 / fast_pskip=0 / chroma_qp_offset=-3 / threads=6 / lookahead_threads=1 / sliced_threads=0 / nr=0 / decimate=0 / interlaced=0 / bluray_compat=0 / constrained_intra=0 / bframes=10 / b_pyramid=2 / b_adapt=2 / b_bias=0 / direct=3 / weightb=1 / open_gop=0 / weightp=2 / keyint=250 / keyint_min=24 / scenecut=40 / intra_refresh=0 / rc_lookahead=150 / rc=crf / mbtree=0 / crf=20.9 / qcomp=0.75 / qpmin=0 / qpmax=69 / qpstep=4 / vbv_maxrate=62500 / vbv_bufsize=78125 / crf_max=0.0 / nal_hrd=none / filler=0 / ip_ratio=1.15 / pb_ratio=1.12 / aq=2:0.65
Default : Yes
Forced : No
Color range : Limited
Color primaries : BT.709
Matrix coefficients : BT.709

Audio
ID : 2
Format : AC-3
Format/Info : Audio Coding 3
Commercial name : Dolby Digital
Codec ID : A_AC3
Duration : 2 h 40 min
Bit rate mode : Constant
Bit rate : 640 kb/s
Channel(s) : 6 channels
Channel layout : L R C LFE Ls Rs
Sampling rate : 48.0 kHz
Frame rate : 31.250 FPS (1536 SPF)
Compression mode : Lossy
Stream size : 733 MiB (5%)
Language : French
Service kind : Complete Main
Default : Yes
Forced : No

Text #1
ID : 3
Format : UTF-8
Codec ID : S_TEXT/UTF8
Codec ID/Info : UTF-8 Plain Text
Duration : 2 h 40 min
Bit rate : 41 b/s
Count of elements : 1614
Stream size : 48.6 KiB (0%)
Title : spa ACONTRA+
Language : Spanish
Default : Yes
Forced : No

Text #2
ID : 4
Format : UTF-8
Codec ID : S_TEXT/UTF8
Codec ID/Info : UTF-8 Plain Text
Duration : 2 h 35 min
Bit rate : 44 b/s
Count of elements : 1345
Stream size : 50.2 KiB (0%)
Title : English
Language : English
Default : No
Forced : No

Text #3
ID : 5
Format : UTF-8
Codec ID : S_TEXT/UTF8
Codec ID/Info : UTF-8 Plain Text
Duration : 2 h 39 min
Bit rate : 44 b/s
Count of elements : 1431
Stream size : 52.7 KiB (0%)
Title : French
Language : French
Default : No
Forced : No

Menu
00:00:00.000 : en:Chapter 01
00:07:30.375 : en:Chapter 02
00:16:04.958 : en:Chapter 03
00:37:16.375 : en:Chapter 04
00:52:43.291 : en:Chapter 05
01:00:02.500 : en:Chapter 06
01:12:30.250 : en:Chapter 07
01:25:57.250 : en:Chapter 08
01:43:27.500 : en:Chapter 09
02:00:10.166 : en:Chapter 10
02:18:55.625 : en:Chapter 11
02:34:42.666 : en:Chapter 12






Spoiler: mostrar
General
Unique ID : 122667327955773405701121485731118887967 (0x5C48DE35F4ABC8259180E23DE592B41F)
Complete name : C:\Jeanne.la.Pucelle.II.-.Les.Prisons.1994.1080p.Bluray.AC3.5.1.x264-SaL VOSE.mkv
Format : Matroska
Format version : Version 4
File size : 15.3 GiB
Duration : 2 h 56 min
Overall bit rate : 12.4 Mb/s
Movie name : Jeanne la Pucelle II - Les prisons AKA Joan the Maid 2: The Prisons (1994) @ SaL
Encoded date : UTC 2024-02-13 18:35:42
Writing application : mkvmerge v82.0 ('I'm The President') 64-bit
Writing library : libebml v1.4.5 + libmatroska v1.7.1

Video
ID : 1
Format : AVC
Format/Info : Advanced Video Codec
Format profile : High@L4.1
Format settings : CABAC / 4 Ref Frames
Format settings, CABAC : Yes
Format settings, Reference frames : 4 frames
Codec ID : V_MPEG4/ISO/AVC
Duration : 2 h 56 min
Bit rate : 11.8 Mb/s
Width : 1 920 pixels
Height : 1 038 pixels
Display aspect ratio : 1.85:1
Frame rate mode : Constant
Frame rate : 24.000 FPS
Color space : YUV
Chroma subsampling : 4:2:0
Bit depth : 8 bits
Scan type : Progressive
Bits/(Pixel*Frame) : 0.246
Stream size : 14.5 GiB (95%)
Writing library : x264 core 157 r2935 545de2f
Encoding settings : cabac=1 / ref=4 / deblock=1:-3:-3 / analyse=0x3:0x133 / me=umh / subme=10 / psy=1 / psy_rd=1.08:0.16 / mixed_ref=1 / me_range=32 / chroma_me=1 / trellis=2 / 8x8dct=1 / cqm=0 / deadzone=21,11 / fast_pskip=0 / chroma_qp_offset=-3 / threads=6 / lookahead_threads=1 / sliced_threads=0 / nr=0 / decimate=0 / interlaced=0 / bluray_compat=0 / constrained_intra=0 / bframes=12 / b_pyramid=2 / b_adapt=2 / b_bias=0 / direct=3 / weightb=1 / open_gop=0 / weightp=2 / keyint=250 / keyint_min=24 / scenecut=40 / intra_refresh=0 / rc_lookahead=150 / rc=crf / mbtree=0 / crf=20.8 / qcomp=0.75 / qpmin=0 / qpmax=69 / qpstep=4 / vbv_maxrate=62500 / vbv_bufsize=78125 / crf_max=0.0 / nal_hrd=none / filler=0 / ip_ratio=1.15 / pb_ratio=1.12 / aq=2:0.65
Default : Yes
Forced : No
Color range : Limited
Color primaries : BT.709
Matrix coefficients : BT.709

Audio
ID : 2
Format : AC-3
Format/Info : Audio Coding 3
Commercial name : Dolby Digital
Codec ID : A_AC3
Duration : 2 h 56 min
Bit rate mode : Constant
Bit rate : 640 kb/s
Channel(s) : 6 channels
Channel layout : L R C LFE Ls Rs
Sampling rate : 48.0 kHz
Frame rate : 31.250 FPS (1536 SPF)
Compression mode : Lossy
Stream size : 807 MiB (5%)
Language : French
Service kind : Complete Main
Default : Yes
Forced : No

Text #1
ID : 3
Format : UTF-8
Codec ID : S_TEXT/UTF8
Codec ID/Info : UTF-8 Plain Text
Duration : 2 h 56 min
Bit rate : 39 b/s
Count of elements : 1717
Stream size : 51.2 KiB (0%)
Title : spa ACONTRA+
Language : Spanish
Default : Yes
Forced : No

Text #2
ID : 4
Format : UTF-8
Codec ID : S_TEXT/UTF8
Codec ID/Info : UTF-8 Plain Text
Duration : 2 h 51 min
Bit rate : 39 b/s
Count of elements : 1365
Stream size : 49.2 KiB (0%)
Title : English
Language : English
Default : No
Forced : No

Text #3
ID : 5
Format : UTF-8
Codec ID : S_TEXT/UTF8
Codec ID/Info : UTF-8 Plain Text
Duration : 2 h 55 min
Bit rate : 41 b/s
Count of elements : 1430
Stream size : 53.9 KiB (0%)
Title : French
Language : French
Default : No
Forced : No

Menu
00:00:00.000 : en:Chapter 01
00:19:56.750 : en:Chapter 02
00:33:44.083 : en:Chapter 03
01:01:00.208 : en:Chapter 04
01:18:51.875 : en:Chapter 05
01:33:32.583 : en:Chapter 06
01:46:15.958 : en:Chapter 07
01:52:11.583 : en:Chapter 08
02:01:36.666 : en:Chapter 09
02:09:39.791 : en:Chapter 10
02:17:32.791 : en:Chapter 11
02:34:34.916 : en:Chapter 12







Enlaces:

ed2k linked2k://|file|Jeanne.la.Pucelle.I.-.Les.Batailles.1994.1080p.Bluray.AC3.5.1.x264-SaL%20VOSE.mkv|15993963585|3E304D4BDFB1E0FA3B413D92C06C0694|h=DRYD7OMQPPSETCGIA6DQJ6CNNS4Y4XIR|/ ed2k link stats

ed2k linked2k://|file|Jeanne.la.Pucelle.II.-.Les.Prisons.1994.1080p.Bluray.AC3.5.1.x264-SaL%20VOSE.mkv|16388586671|C12209D62FF50F71F84A27F31887E567|h=BRIKLDLE2JXBK74SBTD4MYS643F5SZBX|/ ed2k link stats




Notas:
BDrip de tracker privado, Bd de origen FRA (P**temkine)

Añadido subs españoles de plataforma, aparte el ripeo llevaba subs en inglés y francés.


Notas del ripeo original :
Spoiler: mostrar
I fixed the source's low bitrate/patchy grain/grain that would sort of pulse, with AddGrain in AvsPmod
Fixed the source's dirty borders with FixBrightnessProtect
OCRed the English and French subs


--- SETTINGS ---

Encoder : x264 (AVC/H.264), 64-Bit (x64), 8-Bit
Source : Avisynth (avs)
RC Mode : CRF
Preset : veryslow
Tuning : <None>
Profile : High
Custom : --level 41 --vbv-bufsize 78125 --vbv-maxrate 62500 --merange 32 --bframes 12 --me umh --deblock -3:-3 --no-fast-pskip --qcomp 0.75 --psy-rd 1.08:0.16 --aq-mode 2 --aq-strength 0.65 --ipratio 1.152 --pbratio 1.118 --rc-lookahead 150 --no-mbtree --no-dct-decimate --colormatrix bt709 --colorprim bt709



Otros ripeos:


Jeanne la pucelle (Jacques Rivette, 1994) ALGORip VOSI

graveland
Mensajes: 755
Registrado: Vie 18 Dic, 2009 21:15

Re: Jeanne la Pucelle (Jacques Rivette, 1994) HD 1080p VOSE

Mensaje por graveland » Vie 23 Feb, 2024 21:18

¡Mil gracias, Teen!

Avatar de Usuario
ostrata
Mensajes: 2769
Registrado: Mié 24 Mar, 2010 17:29

Re: Jeanne la Pucelle (Jacques Rivette, 1994) HD 1080p VOSE

Mensaje por ostrata » Sab 24 Feb, 2024 09:53

Gracias. :)

Saludos.

Avatar de Usuario
marioguerola
Elegancia y sencillez
Mensajes: 658
Registrado: Lun 18 Abr, 2022 21:42

Re: Jeanne la Pucelle (Jacques Rivette, 1994) HD 1080p VOSE

Mensaje por marioguerola » Mar 27 Feb, 2024 18:23

Yo también me apunto, muchas gracias teen, comparto! :plas:
«Es mucho mejor dar que recibir»
(Madre Teresa de Calcuta y Mike Tyson)

Avatar de Usuario
Forrest Gump
Mensajes: 1765
Registrado: Vie 18 May, 2007 18:06
Ubicación: Zihuatanejo

Re: Jeanne la Pucelle (Jacques Rivette, 1994) HD 1080p VOSE

Mensaje por Forrest Gump » Mié 28 Feb, 2024 02:21

Mil gracias, Teen. ¿Alguien que la haya descargado podría compartir los subs españoles? Porque resulta que tengo estos mismos encodes desde hace unos años.
Made it, Ma, top of the world!

Avatar de Usuario
marioguerola
Elegancia y sencillez
Mensajes: 658
Registrado: Lun 18 Abr, 2022 21:42

Re: Jeanne la Pucelle (Jacques Rivette, 1994) HD 1080p VOSE

Mensaje por marioguerola » Mié 28 Feb, 2024 13:03

Forrest Gump escribió:
Mié 28 Feb, 2024 02:21
Mil gracias, Teen. ¿Alguien que la haya descargado podría compartir los subs españoles? Porque resulta que tengo estos mismos encodes desde hace unos años.
Claro Forrest, te los pongo en el incoming:



«Es mucho mejor dar que recibir»
(Madre Teresa de Calcuta y Mike Tyson)

Avatar de Usuario
Forrest Gump
Mensajes: 1765
Registrado: Vie 18 May, 2007 18:06
Ubicación: Zihuatanejo

Re: Jeanne la Pucelle (Jacques Rivette, 1994) HD 1080p VOSE

Mensaje por Forrest Gump » Mié 28 Feb, 2024 13:40

Muchas gracias, querido mario. :wink:
Made it, Ma, top of the world!

joramor
Mensajes: 2017
Registrado: Vie 05 Nov, 2010 19:55

Re: Jeanne la Pucelle (Jacques Rivette, 1994) HD 1080p VOSE

Mensaje por joramor » Jue 29 Feb, 2024 22:41

Muchas gracias, Teen. Salu2.

Avatar de Usuario
Palahniuk
What a day, what a lovely day!
Mensajes: 3904
Registrado: Vie 09 Jun, 2006 23:07
Ubicación: Vuelo 2039

Re: Jeanne la Pucelle (Jacques Rivette, 1994) HD 1080p VOSE

Mensaje por Palahniuk » Vie 01 Mar, 2024 20:21

Por supuestísimo que me las llevo. Muy agradecido.

P.D: Y enhorabuena por extraer los subtitulos de AContra+, porque me pelee para sacar los de "Until the end of the world", el montaje de Wenders, y nada.
Imagen

Avatar de Usuario
pcero
Aprendiz de todo
Mensajes: 780
Registrado: Lun 15 Nov, 2004 01:00

Re: Jeanne la Pucelle (Jacques Rivette, 1994) HD 1080p VOSE

Mensaje por pcero » Sab 02 Mar, 2024 09:23

Palahniuk escribió:
Vie 01 Mar, 2024 20:21
P.D: extraer los subtitulos de
mkvgui incluye órdenes de terminal. En concreto suelo acudir a
mkvinfo (información del fichero)
mkvextract (extracción de pistas)

Terminal (mejor colocarse en ese directorio para no tener que incluir la ruta para localizar el fichero)
mkvextract fichero tracks numero.de.pista:titulo.a.tu.gusto (teniendo en cuenta que matroska empieza a contar en cero, que suele ser el video y no en uno, para deducir el número de pista; o mejor, leerlo en mkvinfo primero)

Yo trabajo en linux, lo que quiere decir que es preferible evitar los espacios en el nombre del fichero, ya que una orden en bash termina al encontrar un espacio y que el argumento que continúa no es el que espera. Si no se quiere corregir el nombre del fichero y tiene espacios, rodear el nombre del fichero en comillas dobles o simples. En windows no tengo ni idea si los espacios cortan la orden

Avatar de Usuario
Palahniuk
What a day, what a lovely day!
Mensajes: 3904
Registrado: Vie 09 Jun, 2006 23:07
Ubicación: Vuelo 2039

Re: Jeanne la Pucelle (Jacques Rivette, 1994) HD 1080p VOSE

Mensaje por Palahniuk » Sab 02 Mar, 2024 13:37

pcero escribió:
Sab 02 Mar, 2024 09:23
Palahniuk escribió:
Vie 01 Mar, 2024 20:21
P.D: extraer los subtitulos de
mkvgui incluye órdenes de terminal. En concreto suelo acudir a
mkvinfo (información del fichero)
mkvextract (extracción de pistas)

Terminal (mejor colocarse en ese directorio para no tener que incluir la ruta para localizar el fichero)
mkvextract fichero tracks numero.de.pista:titulo.a.tu.gusto (teniendo en cuenta que matroska empieza a contar en cero, que suele ser el video y no en uno, para deducir el número de pista; o mejor, leerlo en mkvinfo primero)

Yo trabajo en linux, lo que quiere decir que es preferible evitar los espacios en el nombre del fichero, ya que una orden en bash termina al encontrar un espacio y que el argumento que continúa no es el que espera. Si no se quiere corregir el nombre del fichero y tiene espacios, rodear el nombre del fichero en comillas dobles o simples. En windows no tengo ni idea si los espacios cortan la orden
Lo cierto es que era mas extraer los subtítulos de una plataforma de streaming, el mkvtoolmix si lo manejo, pero queda dicho por si algún linuxero se lía .
¡Gracias!
Imagen

Avatar de Usuario
pcero
Aprendiz de todo
Mensajes: 780
Registrado: Lun 15 Nov, 2004 01:00

Re: Jeanne la Pucelle (Jacques Rivette, 1994) HD 1080p VOSE

Mensaje por pcero » Dom 03 Mar, 2024 09:12

Palahniuk escribió:
Sab 02 Mar, 2024 13:37

Lo cierto es que era mas extraer los subtítulos de una plataforma de streaming
La extracción de un streaming es una ciencia que nunca he practicado. Vivo cómodamente dependiendo de los que sí sabéis
Las gracias os las debemos a vosotros

Avatar de Usuario
eulsus
Mensajes: 2550
Registrado: Vie 18 May, 2007 10:41

Re: Jeanne la Pucelle (Jacques Rivette, 1994) HD 1080p VOSE

Mensaje por eulsus » Dom 03 Mar, 2024 16:36

A ver si consigo hacer hueco, porque tiene una muy buena pinta.

Saludos, Teen.
Imagen
Antonio García-Trevijano Forte (1927-2018)
"Para que yo sea libre, todos tienen que ser libres"

Abstención activa hasta que haya Libertad Colectiva

Avatar de Usuario
Teeninlove
Mensajes: 1595
Registrado: Dom 25 Jul, 2004 02:00

Re: Jeanne la Pucelle (Jacques Rivette, 1994) HD 1080p VOSE

Mensaje por Teeninlove » Dom 03 Mar, 2024 21:47

La he retirado del incoming, imagino que habrá fuentes de sobra.
Si veis que hace falta, la repongo.

Hay que hacer hueco para los próximos aportes :-)

graveland
Mensajes: 755
Registrado: Vie 18 Dic, 2009 21:15

Re: Jeanne la Pucelle (Jacques Rivette, 1994) HD 1080p VOSE

Mensaje por graveland » Lun 04 Mar, 2024 15:41

Teeninlove escribió:
Dom 03 Mar, 2024 21:47
Pues aprovecho este último mensaje para darte las gracias una vez más. Uno de los proyectos más interesantes en lo que va de año este Rivette.

Responder