Un zoo la nuit (Jean-Claude Lauzon, 1987) DVDRip VOSE

Foro orientado a películas de calidad posteriores a 1980. Publica sólo BDRips, DVDRips o TVRips (no Screeners, CAMs, etc.).
Avatar de Usuario
hammett

Mensajes: 335
Registrado: Vie 10 Oct, 2008 09:04

Un zoo la nuit (Jean-Claude Lauzon, 1987) DVDRip VOSE

Mensajepor hammett » Dom 16 Jul, 2017 11:01

UN ZOO LA NUIT
Fronteras de la noche
Imagen

IMDB


AÑO: 1987
NACIONALIDAD: Canada
GÉNERO: Thriller
DIRECTOR: Jean-Claude Lauzon
PRODUCTOR: Roger Frappier y Pierre Gendron
GUIÓN: Jean-Claude Lauzon
FOTOGRAFÍA: Guy Dufaux
MÚSICA: Jean Corriveau
MONTAJE: Michel Arcand
REPARTO: Gilles Maheu, Roger Lebel, Corrado Mastropasqua, Lorne Brass, Germain Houde, Jerry Snell, Lynne Adams, Anna-Maria Giannotti, Nereo Lorenzi, Nicolas Clarizio.
ARGUMENTO: Marcel acaba de salir de la cárcel e intenta recuperar sus relaciones con su novia Julie -que ahora es prostituta- y con su padre Albert -que piensa que su hijo ha estado fuera todo este tiempo en un largo viaje fuera de Montreal-. Pero las cosas no serán fáciles, especialmente cuando es perseguido por dos policías corruptos que van detrás del dinero del tráfico de drogas que Marcel guardó antes de ir a prisión. (FILMAFFINITY)

JEAN-CLAUDE LAUZON FUE UN CINEASTA CANADIENSE PREMATURAMENTE DESAPARECIDO A LOS 43 AÑOS EN UN ACCIDENTE DE AVIACIÓN. TRAS SU SEGUNDO FILM, LA BRILLANTE LEOLO (1992), ERA CONSIDERADO COMO UNO DE LOS CINEASTAS MÁS PROMETEDORES DE CANADA. HOY OS PRESENTO SU OPERA PRIMA, UN NOIR MUY PARTICULAR DE SÓRDIDOS AMBIENTES Y PERSONAJES AL LÍMITE QUE BUSCAN UN SENTIDO FINAL A SU EXISTENCIA. UNA HISTORIA DE DEUDAS POR PAGAR, SIRVE A LAUZON PARA ARTICULAR UN DISCURSO SOBRE EL AMOR, LA FIDELIDAD, LA PÉRDIDA Y LA FAMILIA. NO EN TODOS LOS MOMENTOS LO CONSIGUE LAUZON, PERO EL CONJUNTO DEL FILM RESULTA MUY ATRACTIVO, A LA VEZ QUE DESASOSEGADOR. UN FILM MUY INTERESANTE, EXCESIVO EN ALGUNOS MOMENTOS, QUE SEGURO QUE NO DEJA INDIFERENTE A NADIE. AHORA, HE CONFECCIONADO LOS SUBTÍTULOS EN CASTELLANO IMPRESCINDIBLES PARA PODER SACAR CONCLUSIONES DESPUÉS DE VERLA.

CAPTURAS

Imagen

Imagen

Imagen

Imagen

Imagen


DATOS TECNICOS

Spoiler: mostrar
General
Unique ID : 204434822679272533494312174104252343370 (0x99CCB6F470823FA58A1D503B0E21644A)
Complete name : I:\Descargas Karagarga\Un zoo la nuit.mkv
Format : Matroska
Format version : Version 4 / Version 2
File size : 3.57 GiB
Duration : 1h 56mn
Overall bit rate : 4 395 Kbps
Encoded date : UTC 2015-05-10 00:56:13
Writing application : mkvmerge v7.8.0 ('River Man') 64bit built on Mar 27 2015 16:31:37
Writing library : libebml v1.3.1 + libmatroska v1.4.2
DURATION : 01:50:53.430000000
NUMBER_OF_FRAMES : 695
NUMBER_OF_BYTES : 17938
_STATISTICS_WRITING_APP : mkvmerge v7.8.0 ('River Man') 64bit built on Mar 27 2015 16:31:37
_STATISTICS_WRITING_DATE_UTC : 2015-05-10 00:56:13
_STATISTICS_TAGS : BPS DURATION NUMBER_OF_FRAMES NUMBER_OF_BYTES

Video
ID : 1
Format : AVC
Format/Info : Advanced Video Codec
Format profile : High@L3.1
Format settings, CABAC : No
Format settings, ReFrames : 2 frames
Codec ID : V_MPEG4/ISO/AVC
Duration : 1h 56mn
Bit rate : 3 923 Kbps
Width : 1 280 pixels
Height : 686 pixels
Display aspect ratio : 1.85:1
Frame rate mode : Constant
Frame rate : 23.976 fps
Color space : YUV
Chroma subsampling : 4:2:0
Bit depth : 8 bits
Scan type : Progressive
Bits/(Pixel*Frame) : 0.186
Stream size : 3.19 GiB (89%)
Language : English
Default : Yes
Forced : No
Color primaries : BT.709
Transfer characteristics : BT.709
Matrix coefficients : BT.709

Audio
ID : 2
Format : AC-3
Format/Info : Audio Coding 3
Mode extension : CM (complete main)
Format settings, Endianness : Big
Codec ID : A_AC3
Duration : 1h 56mn
Bit rate mode : Constant
Bit rate : 384 Kbps
Channel(s) : 6 channels
Channel positions : Front: L C R, Side: L R, LFE
Sampling rate : 48.0 KHz
Bit depth : 16 bits
Compression mode : Lossy
Stream size : 320 MiB (9%)
Language : French
Default : Yes
Forced : No

Text
ID : 3
Format : UTF-8
Codec ID : S_TEXT/UTF8
Codec ID/Info : UTF-8 Plain Text
Language : English
Default : Yes
Forced : No


Enlace: Un zoo la nuit.mkv [3.57 Gb] [Info]

Subtítulos ingleses dentro del contenedor MKV


Subtítulos castellanos en descarga directa: http://www.subdivx.com/X6XNDcyODU0X-un- ... -1987.html
"La vida es en color, pero el blanco y negro es más realista"

ostrata

Mensajes: 1171
Registrado: Mié 24 Mar, 2010 17:29

Re: Un zoo la nuit (Jean-Claude Lauzon, 1987) DVDRip VOSE/I

Mensajepor ostrata » Dom 16 Jul, 2017 12:00

Gracias. :)

Saludos.


Volver a “Cine Contemporáneo”

¿Quién está conectado?

Usuarios navegando por este Foro: Ahrefs [Bot], Yandex [Bot] y 2 invitados