El hotel de los líos (William A. Seiter, 1938) HD 720p Dual SE

Publica y encuentra enlaces p2p de filmes hasta 1980 en esta sección.
Responder
Avatar de Usuario
DCINE
Mensajes: 624
Registrado: Mar 20 Dic, 2016 15:02

El hotel de los líos (William A. Seiter, 1938) HD 720p Dual SE

Mensaje por DCINE » Sab 22 Ene, 2022 07:01

El hotel de los líos
(Room Service)

1938

Imagen




DIRECTOR: William A. Seiter
PRODUCTORA: RKO Radio Pictures
GUIÓN: Morrie Ryskind
MÚSICA: Roy Webb
FOTOGRAFÍA: J. Roy Hunt


ImagenImagenImagen


ARGUMENTO Gordon Miller, un productor de teatro de tres al cuarto, quiere estrenar la obra de un joven autor novel, pero necesita encontrar un capitalista que la financie antes de iniciar los preparativos de la función. Mientras tanto, se ha instalado, con los 22 miembros de su compañía, en el hotel que regenta su cuñado. Cuando se descubre que debe una suma considerable al hotel, lo amenazan con desalojarlo, pero Miller, con la complicidad de sus fieles Harry Binelli y Faker Englund, se las ingeniará para evitarlo y, además, conseguirá, por fin, estrenar la obra. (FILMAFFINITY) IMDB: https://www.imdb.com/title/tt0030696/

ImagenImagenImagen
ImagenImagenImagen
ImagenImagenImagen
ImagenImagenImagen

Reparto: Groucho Marx, Harpo Marx, Chico Marx, Donald MacBride, Frank Albertson, Lucille Ball, Ann Miller, Cliff Dunstan




Datos técnicos

Video: Ripeo 1080p grabado de TCM por regret obtenido de rargbmirror, codificado a 720p.

Audios:

V.O. (Inglés): En AC-3.

Doblaje: El de la reposición de 1966. De un ripeo encontrado en emule.

Subtítulos: Ingleses ya incluidos, los españoles son de tofurri sincronizados a esta copia por mifune por petición mía.


Código: Seleccionar todo

General:
General
Unique ID                        : 184455828347192550200278778375921704576 (0x8AC4E67B9276DC2A85A4A79FFDBF9E80)
Complete name                    : 1938 El hotel de los líos (Room Service) (William A. Seiter) HDTV 720p Dual (Spa (Doblaje Cines 1966)-Eng) SE-I by regret-DCINE.mkv
Format                           : Matroska
Format version                   : Version 4 / Version 2
File size                        : 1.72 GiB
Duration                         : 1h 18mn
Overall bit rate                 : 3 141 Kbps
Movie name                       : 1938 El hotel de los líos/Room Service (William A. Seiter, 1938) HDTV 720p Dual (Spa (Doblaje Reposición Cines 1966)-Eng) SE-I by regret-DCINE.mkv
Encoded date                     : UTC 2021-12-16 18:42:43
Writing application              : mkvmerge v7.1.0 ('Good Love') 32bit built on Jul 27 2014 12:59:18
Writing library                  : libebml v1.3.0 + libmatroska v1.4.1
DURATION                         : 01:16:39.083000000
NUMBER_OF_FRAMES                 : 1341
NUMBER_OF_BYTES                  : 59082
_STATISTICS_WRITING_APP          : mkvmerge v7.1.0 ('Good Love') 32bit built on Jul 27 2014 12:59:18
_STATISTICS_WRITING_DATE_UTC     : 2021-12-16 18:42:43
_STATISTICS_TAGS                 : BPS DURATION NUMBER_OF_FRAMES NUMBER_OF_BYTES

Video
ID                               : 1
Format                           : AVC
Format/Info                      : Advanced Video Codec
Format profile                   : High@L4.1
Format settings, CABAC           : Yes
Format settings, ReFrames        : 11 frames
Codec ID                         : V_MPEG4/ISO/AVC
Duration                         : 1h 18mn
Bit rate                         : 2 695 Kbps
Width                            : 982 pixels
Height                           : 720 pixels
Display aspect ratio             : 4:3
Frame rate mode                  : Variable
Frame rate                       : 23.976 fps
Color space                      : YUV
Chroma subsampling               : 4:2:0
Bit depth                        : 8 bits
Scan type                        : Progressive
Bits/(Pixel*Frame)               : 0.159
Stream size                      : 1.48 GiB (86%)
Writing library                  : x264 core 155 r2901 7d0ff22
Encoding settings                : cabac=1 / ref=11 / deblock=1:0:0 / analyse=0x3:0x133 / me=umh / subme=10 / psy=1 / psy_rd=1.00:0.00 / mixed_ref=1 / me_range=24 / chroma_me=1 / trellis=2 / 8x8dct=1 / cqm=0 / deadzone=21,11 / fast_pskip=1 / chroma_qp_offset=-2 / threads=3 / lookahead_threads=1 / sliced_threads=0 / nr=0 / decimate=1 / interlaced=0 / bluray_compat=0 / constrained_intra=0 / bframes=8 / b_pyramid=2 / b_adapt=2 / b_bias=0 / direct=3 / weightb=1 / open_gop=0 / weightp=2 / keyint=240 / keyint_min=24 / scenecut=40 / intra_refresh=0 / rc_lookahead=60 / rc=crf / mbtree=1 / crf=18.0 / qcomp=0.60 / qpmin=0 / qpmax=69 / qpstep=4 / vbv_maxrate=62500 / vbv_bufsize=78125 / crf_max=0.0 / nal_hrd=none / filler=0 / ip_ratio=1.40 / aq=1:1.00
Default                          : Yes
Forced                           : No
DURATION                         : 01:18:34.377000000
NUMBER_OF_FRAMES                 : 113032
NUMBER_OF_BYTES                  : 1623401456
_STATISTICS_WRITING_APP          : mkvmerge v7.1.0 ('Good Love') 32bit built on Jul 27 2014 12:59:18
_STATISTICS_WRITING_DATE_UTC     : 2021-12-16 18:42:43
_STATISTICS_TAGS                 : BPS DURATION NUMBER_OF_FRAMES NUMBER_OF_BYTES
Color primaries                  : BT.709-5, BT.1361, IEC 61966-2-4, SMPTE RP177
Transfer characteristics         : BT.709-5, BT.1361
Matrix coefficients              : BT.709-5, BT.1361, IEC 61966-2-4 709, SMPTE RP177

Audio #1
ID                               : 2
Format                           : AC-3
Format/Info                      : Audio Coding 3
Mode extension                   : CM (complete main)
Codec ID                         : A_AC3
Duration                         : 1h 18mn
Bit rate mode                    : Constant
Bit rate                         : 192 Kbps
Channel(s)                       : 1 channel
Channel positions                : Front: C
Sampling rate                    : 48.0 KHz
Bit depth                        : 16 bits
Compression mode                 : Lossy
Delay relative to video          : -21ms
Stream size                      : 108 MiB (6%)
Title                            : Doblaje Reposición Cines 1966
Language                         : Spanish
Default                          : No
Forced                           : No

Audio #2
ID                               : 3
Format                           : AC-3
Format/Info                      : Audio Coding 3
Mode extension                   : CM (complete main)
Codec ID                         : A_AC3
Duration                         : 1h 18mn
Bit rate mode                    : Constant
Bit rate                         : 192 Kbps
Channel(s)                       : 1 channel
Channel positions                : Front: C
Sampling rate                    : 48.0 KHz
Bit depth                        : 16 bits
Compression mode                 : Lossy
Delay relative to video          : -21ms
Stream size                      : 108 MiB (6%)
Language                         : English
Default                          : No
Forced                           : No

Text #1
ID                               : 4
Format                           : UTF-8
Codec ID                         : S_TEXT/UTF8
Codec ID/Info                    : UTF-8 Plain Text
Title                            : (by tofurri) (Adjust for rip by mifune)
Language                         : Spanish
Default                          : No
Forced                           : No

Text #2
ID                               : 5
Format                           : UTF-8
Codec ID                         : S_TEXT/UTF8
Codec ID/Info                    : UTF-8 Plain Text
Language                         : English
Default                          : No
Forced                           : No

Capturas:

Imagen Imagen
Imagen Imagen
Imagen Imagen
Imagen Imagen
Imagen Imagen



Enlace:
ed2k link1938 El hotel de los líos (Room Service) (William A. Seiter) HDTV 720p Dual (Spa (Doblaje Cines 1966)-Eng) SE-I by regret-DCINE.mkv ed2k link stats
Otras copias en la web:
DVDRip Dual: viewtopic.php?f=1002&t=52981&hilit=hotel+lios+1938

bolzato
Mensajes: 188
Registrado: Vie 14 Sep, 2012 16:36

Re: El hotel de los líos (William A. Seiter, 1938) HD 720p Dual SE

Mensaje por bolzato » Sab 22 Ene, 2022 07:57

Muchísimas gracias, DCINE.

ostrata
Mensajes: 2488
Registrado: Mié 24 Mar, 2010 17:29

Re: El hotel de los líos (William A. Seiter, 1938) HD 720p Dual SE

Mensaje por ostrata » Sab 22 Ene, 2022 10:52

Gracias. :)

Saludos.

Avatar de Usuario
MILLER
Mensajes: 464
Registrado: Sab 01 Oct, 2005 02:00
Ubicación: Delante del ordenador

Re: El hotel de los líos (William A. Seiter, 1938) HD 720p Dual SE

Mensaje por MILLER » Sab 22 Ene, 2022 14:11

Pinchamos!

Muchas gracias.

Avatar de Usuario
paizoco
Mensajes: 2881
Registrado: Vie 21 Nov, 2003 01:00
Ubicación: Far West

Re: El hotel de los líos (William A. Seiter, 1938) HD 720p Dual SE

Mensaje por paizoco » Sab 22 Ene, 2022 17:52

Me apunto, muchas gracias.

Avatar de Usuario
carrido
Mensajes: 601
Registrado: Mié 19 Feb, 2014 15:58
Ubicación: Freedonia

Re: El hotel de los líos (William A. Seiter, 1938) HD 720p Dual SE

Mensaje por carrido » Dom 23 Ene, 2022 11:58

Muchísimas gracias DCINE; siempre es un placer ver a los hermanos Marx.

:plas: :plas: :plas: :plas: :plas: :juas: :juas: (:-) (:-) :lol:
Carrido

Avatar de Usuario
Spanish Jhonny
Mensajes: 3315
Registrado: Mar 18 Sep, 2012 16:01

Re: El hotel de los líos (William A. Seiter, 1938) HD 720p Dual SE

Mensaje por Spanish Jhonny » Dom 23 Ene, 2022 21:06

Muchas gracias :sonrisa:

Avatar de Usuario
baldomp
Mensajes: 510
Registrado: Mar 15 Ago, 2017 12:55

Re: El hotel de los líos (William A. Seiter, 1938) HD 720p Dual SE

Mensaje por baldomp » Mié 26 Ene, 2022 20:33

¡Grandes" :plas: ... ¡bajando!
Gracias, DCINE.

Avatar de Usuario
Jacob
Exprópiese
Mensajes: 10020
Registrado: Jue 01 Jul, 2004 02:00
Ubicación: Where no one has gone before!

Re: El hotel de los líos (William A. Seiter, 1938) HD 720p Dual SE

Mensaje por Jacob » Jue 03 Feb, 2022 17:30

¡Infinitas gracias, DCINE! Justamente ahora me estoy bajando varias películas de los Hermanos Marx así que aprovecho la acupuntura* para pinchar** este ripeo.

*O como se diga. :mrgreen:
**Pun intended.

Responder