All My Sons (Irving Reis, 1948) HD 720p Dual SE

Publica y encuentra enlaces p2p de filmes hasta 1980 en esta sección.
Responder
Avatar de Usuario
DMMD
Mensajes: 1889
Registrado: Lun 27 Feb, 2012 14:16

All My Sons (Irving Reis, 1948) HD 720p Dual SE

Mensaje por DMMD » Mar 04 Ene, 2022 16:17

Imagen



Imagen



Todos eran mis hijos

Título original All My Sons
Año 1948
Duración 95 min.
País Imagen
Dirección Irving Reis
Guion Chester Erskine. Obra: Arthur Miller
Música Leith Stevens
Fotografía Russell Metty (B&W)
Reparto
Edward G. Robinson, Burt Lancaster, Mady Christians, Louisa Horton, Howard Duff, Frank Conroy, Lloyd Gough, Arlene Francis

Productora Universal International Pictures (UI)
Género Drama
Sinopsis
Adaptación de la obra teatral homónima de Arthur Miller. Joe Keller es un exitoso hombre de negocios con un pasado que le atormenta: durante la II Guerra Mundial se benefició de un lucrativo contrato con el ejército. Pero, en una ocasión, acuciado por las prisas, entregó un avión, a sabiendas de que tenía algunas piezas defectuosas, que acabó estrellándose con 21 hombres a bordo.
(FILMAFFINITY)
Premios
1948: Sindicato de Guionistas (WGA): Nominada a Mejor guion drama




Vídeo:

- Encode a partir de la reciente edición del Bluray Kino Lorber (2K master)

En general buena imagen, aunque esperaba una transferencia de bastante mas calidad.

Buen contraste con deficit de gris, el grano luce bien aunque se echa de menos un grano mas fino, la iluminación en general aceptable, baja en algunas secuencias, pero pasable.

El problema en general, es el de siempre en estas ediciones de Kino, la limpieza en general, demasiados defectos de celuloide, no llega a ser tan escandaloso como en las ediciones de dvds pero a estas alturas que no se molesten en eliminar o subsanar las típicas manchas, rayas o artefactos creados por la suciedad en la fuente original de partida, pues es un poco frustrante.

En algunas secuencias también se aprecian durante algunos momentos temblores en la imagen, un poco de estabilización hubiese ayudado.




Imagen Imagen Imagen Imagen Imagen Imagen Imagen Imagen Imagen Imagen Imagen Imagen Imagen Imagen

Imagen

Código: Seleccionar todo

General
Unique ID                                : 83725235287500609515812254597819611669 (0x3EFCE4CE613D1F50F035745277033A15)
Complete name                            : D:\Incoming\1948-All.My.Sons.BRx264.720p.AAC.AC3.(DMMD).mkv
Format                                   : Matroska
Format version                           : Version 4
File size                                : 6.41 GiB
Duration                                 : 1 h 33 min
Overall bit rate                         : 9 788 kb/s
Movie name                               : 1948-All.My.Sons.BRx264.720p.AAC.AC3.(DMMD)
Encoded date                             : UTC 2022-01-04 14:53:49
Writing application                      : mkvmerge v63.0.0 ('Everything') 64-bit
Writing library                          : libebml v1.4.2 + libmatroska v1.6.4
Attachments                              : 1 / 2 / 3 / 4

Video
ID                                       : 1
Format                                   : AVC
Format/Info                              : Advanced Video Codec
Format profile                           : High@L4.1
Format settings                          : CABAC / 11 Ref Frames
Format settings, CABAC                   : Yes
Format settings, Reference frames        : 11 frames
Codec ID                                 : V_MPEG4/ISO/AVC
Duration                                 : 1 h 33 min
Bit rate                                 : 9 418 kb/s
Width                                    : 990 pixels
Height                                   : 720 pixels
Display aspect ratio                     : 1.375
Frame rate mode                          : Constant
Frame rate                               : 23.976 (24000/1001) FPS
Color space                              : YUV
Chroma subsampling                       : 4:2:0
Bit depth                                : 8 bits
Scan type                                : Progressive
Bits/(Pixel*Frame)                       : 0.551
Stream size                              : 6.17 GiB (96%)
Writing library                          : x264 core 152 r2851kMod ba24899
Encoding settings                        : cabac=1 / ref=11 / deblock=1:-3:-3 / analyse=0x3:0x133 / me=umh / subme=11 / psy=1 / fade_compensate=0.00 / psy_rd=1.15:0.02 / mixed_ref=1 / me_range=24 / chroma_me=1 / trellis=2 / 8x8dct=1 / cqm=0 / deadzone=21,11 / fast_pskip=0 / chroma_qp_offset=-3 / threads=6 / lookahead_threads=1 / sliced_threads=0 / nr=0 / decimate=0 / interlaced=0 / bluray_compat=0 / constrained_intra=0 / bframes=13 / b_pyramid=2 / b_adapt=2 / b_bias=0 / direct=3 / weightb=1 / open_gop=0 / weightp=2 / keyint=250 / keyint_min=23 / scenecut=40 / intra_refresh=0 / rc=crf / mbtree=0 / crf=18.7000 / qcomp=0.73 / qpmin=0 / qpmax=69 / qpstep=4 / ip_ratio=1.25 / pb_ratio=1.15 / aq=3:0.90
Language                                 : English
Default                                  : Yes
Forced                                   : No

Audio #1
ID                                       : 2
Format                                   : AAC LC
Format/Info                              : Advanced Audio Codec Low Complexity
Codec ID                                 : A_AAC-2
Duration                                 : 1 h 33 min
Bit rate                                 : 174 kb/s
Channel(s)                               : 2 channels
Channel layout                           : L R
Sampling rate                            : 48.0 kHz
Frame rate                               : 46.875 FPS (1024 SPF)
Compression mode                         : Lossy
Delay relative to video                  : 9 ms
Stream size                              : 117 MiB (2%)
Language                                 : English
Default                                  : Yes
Forced                                   : No

Audio #2
ID                                       : 3
Format                                   : AC-3
Format/Info                              : Audio Coding 3
Commercial name                          : Dolby Digital
Codec ID                                 : A_AC3
Duration                                 : 1 h 33 min
Bit rate mode                            : Constant
Bit rate                                 : 192 kb/s
Channel(s)                               : 2 channels
Channel layout                           : L R
Sampling rate                            : 48.0 kHz
Frame rate                               : 31.250 FPS (1536 SPF)
Compression mode                         : Lossy
Stream size                              : 129 MiB (2%)
Language                                 : Spanish
Service kind                             : Complete Main
Default                                  : No
Forced                                   : No

Text #1
ID                                       : 4
Format                                   : UTF-8
Codec ID                                 : S_TEXT/UTF8
Codec ID/Info                            : UTF-8 Plain Text
Duration                                 : 1 h 32 min
Bit rate                                 : 74 b/s
Count of elements                        : 1278
Stream size                              : 51.0 KiB (0%)
Language                                 : Spanish
Default                                  : No
Forced                                   : No

Text #2
ID                                       : 5
Format                                   : UTF-8
Codec ID                                 : S_TEXT/UTF8
Codec ID/Info                            : UTF-8 Plain Text
Duration                                 : 1 h 31 min
Bit rate                                 : 88 b/s
Count of elements                        : 1424
Stream size                              : 59.7 KiB (0%)
Language                                 : English
Default                                  : No
Forced                                   : No

Menu
00:00:00.000                             : en:Chapter 01
00:06:07.587                             : en:Chapter 02
00:17:35.482                             : en:Chapter 03
00:34:12.728                             : en:Chapter 04
00:51:30.056                             : en:Chapter 05
01:08:12.307                             : en:Chapter 06
01:19:25.480                             : en:Chapter 07
01:26:39.663                             : en:Chapter 08

Imagen




BDRip 720p vs Dvd Pal (Edición francesa) vs Dvd Ntsc (Universal)

Imagen
Imagen
Imagen


Imagen


REVIEW

Imagen


Audio y subtitulos:


- Para la V.O. audio AAC, pasado del Blu-ray. (DTS-HD Master Audio 2.0 Mono (48kHz, 16-bit)).

- Otra buena notica es que el bluray incluye sub ingles, que no teníamos nada potable por la red.

- Extraídos y pasados a .srt, pero claro todo tiene una pega, la sincronización me ha parecido un poco desastrosa, no sé si es que los sincronizan con algún tipo de software y luego pasan de revisarlos, pero estaban muchas líneas superpuestas, entraban a destiempo o demasiados tiempo en pantalla, el caso es que no me han gustado la sincro y los he resincronizado prácticamente línea a línea.

- Para el doblaje y sub extraídos del dvd, a los sub le añadido alguna que otra línea que se las habían comido en la traducción.




CAPTURAS

Imagen
Imagen
Imagen
Imagen
Imagen
Imagen
Imagen
Imagen
Imagen

Imagen

Enlaces de descarga

Imagen

ed2k link1948-All.My.Sons.BRx264.720p.AAC.AC3.(DMMD).mkv ed2k link stats


Imagen


ostrata
Mensajes: 2516
Registrado: Mié 24 Mar, 2010 17:29

Re: All My Sons (Irving Reis, 1948) HD 720p Dual SE

Mensaje por ostrata » Mar 04 Ene, 2022 17:57

Gracias. :)

Saludos.

joramor
Mensajes: 1836
Registrado: Vie 05 Nov, 2010 19:55

Re: All My Sons (Irving Reis, 1948) HD 720p Dual SE

Mensaje por joramor » Mar 04 Ene, 2022 23:07

Muchas gracias DMMD. Feliz 2022!

Avatar de Usuario
cinefilototal
Mensajes: 139
Registrado: Jue 02 Mar, 2017 12:05

Re: All My Sons (Irving Reis, 1948) HD 720p Dual SE

Mensaje por cinefilototal » Mié 05 Ene, 2022 00:11

¡Muchas gracias por estas buenas calidades!.

Avatar de Usuario
rcortijo
Mensajes: 843
Registrado: Mié 27 Ago, 2003 02:00

Re: All My Sons (Irving Reis, 1948) HD 720p Dual SE

Mensaje por rcortijo » Mié 05 Ene, 2022 10:25

Muchas gracias, DMMD.

Avatar de Usuario
Spanish Jhonny
Mensajes: 3357
Registrado: Mar 18 Sep, 2012 16:01

Re: All My Sons (Irving Reis, 1948) HD 720p Dual SE

Mensaje por Spanish Jhonny » Mié 05 Ene, 2022 16:53

Pincho ahora.
Muchas gracias DMMD. :plas: :plas:
Saludos.

Avatar de Usuario
Teeninlove
Mensajes: 1399
Registrado: Dom 25 Jul, 2004 02:00

Re: All My Sons (Irving Reis, 1948) HD 720p Dual SE

Mensaje por Teeninlove » Mié 05 Ene, 2022 21:54

Muchas gracias.

Avatar de Usuario
Dardo
Arrow Thrower Clown
Mensajes: 17374
Registrado: Dom 19 Oct, 2003 02:00
Ubicación: Entre Encinas y Dolomías

Re: All My Sons (Irving Reis, 1948) HD 720p Dual SE

Mensaje por Dardo » Jue 06 Ene, 2022 08:08

Creo que voy a pinchar :mrgreen:

Fenomenal trabajo y muy buena película. :plas: :plas:

Gracias DMMD :sonrisa:

Avatar de Usuario
eulsus
Mensajes: 2069
Registrado: Vie 18 May, 2007 10:41
Ubicación: La Palma

Re: All My Sons (Irving Reis, 1948) HD 720p Dual SE

Mensaje por eulsus » Jue 06 Ene, 2022 14:27

El cartel de apertura de la publicación no hace honor a tu trabajo, DMMD.
Este es mucho mejor. :)
Imagen
Imagen
Antonio García-Trevijano Forte (1927-2018)
"Para que yo sea libre, todos tienen que ser libres"

Abstención activa hasta que haya Libertad Colectiva

Responder