Femina ridens (Piero Schivazappa, 1969) DVDR VOSE

Publica y encuentra enlaces p2p de filmes hasta 1980 en esta sección.
Responder
Avatar de Usuario
professor keller
Mensajes: 1904
Registrado: Jue 27 Ene, 2005 01:00
Ubicación: Buenos Aires

Femina ridens (Piero Schivazappa, 1969) DVDR VOSE

Mensaje por professor keller » Jue 09 Sep, 2021 23:24

Femina ridens / The Laughing Woman (Piero Schivazappa, 1969)

Imagen

IMDb (6.9) / Wikipedia

Dirección: Piero Schivazappa

Guion: Piero Schivazappa, Paolo Levi, Giuseppe Zaccariello

Música: Stelvio Cipriani

Fotografía: Carlo Achilli, Sante Achilli

Reparto: Philippe Leroy, Dagmar Lassander, Lorenza Guerrieri, Varo Soleri, Maria Cumani Quasimodo

Sinopsis: Sayer (Philippe Leroy) un rico filántropo, se comporta como un sádico los fines de semana, pagando prostitutas. Cuando una de ellas falta a la cita, secuestra a su secretaria, Mary (Dagmar Lassander) y la fuerza a tomar su lugar. Después de someterla a sus demandas intercambian los roles, y ella pasa a ser una agresiva depredadora, en lo que aparenta ser un proceso curativo de la patología sexual de Sayer.

Info:

Código: Seleccionar todo

Video
ID                                       : 1
Format                                   : MPEG Video
Format version                           : Version 2
Format profile                           : Main@Main
Format settings, BVOP                    : No
Format settings, Matrix                  : Default
Codec ID                                 : V_MPEG2
Codec ID/Info                            : MPEG 1 or 2 Video
Duration                                 : 1h 24mn
Bit rate mode                            : Variable
Bit rate                                 : 6 345 Kbps
Maximum bit rate                         : 9 300 Kbps
Width                                    : 720 pixels
Height                                   : 576 pixels
Display aspect ratio                     : 16:9
Frame rate                               : 25.000 fps
Standard                                 : PAL
Color space                              : YUV
Chroma subsampling                       : 4:2:0
Bit depth                                : 8 bits
Scan type                                : Interlaced
Scan order                               : Top Field First
Compression mode                         : Lossy
Bits/(Pixel*Frame)                       : 0.612
Stream size                              : 3.75 GiB (95%)
Language                                 : English
Default                                  : No
Forced                                   : No
DURATION                                 : 01:24:33.000000000
NUMBER_OF_FRAMES                         : 126825
NUMBER_OF_BYTES                          : 4103051439
SOURCE_ID                                : 0100E0
_STATISTICS_WRITING_APP                  : MakeMKV v1.10.5 win(x64-release)
_STATISTICS_WRITING_DATE_UTC             : 2017-04-17 02:46:44
_STATISTICS_TAGS                         : BPS DURATION NUMBER_OF_FRAMES NUMBER_OF_BYTES SOURCE_ID
Color primaries                          : BT.470-2 System B, BT.470-2 System G
Transfer characteristics                 : BT.470-2 System B, BT.470-2 System G
Matrix coefficients                      : BT.470-2 System B, BT.470-2 System G

Audio
ID                                       : 2
Format                                   : AC-3
Format/Info                              : Audio Coding 3
Mode extension                           : CM (complete main)
Format settings, Endianness              : Big
Codec ID                                 : A_AC3
Duration                                 : 1h 24mn
Bit rate mode                            : Constant
Bit rate                                 : 192 Kbps
Channel(s)                               : 2 channels
Channel positions                        : Front: L R
Sampling rate                            : 48.0 KHz
Bit depth                                : 16 bits
Compression mode                         : Lossy
Stream size                              : 116 MiB (3%)
Title                                    : Stereo
Language                                 : Italian
Default                                  : Yes
Forced                                   : No

Capturas:
Imagen
Imagen
Imagen
Imagen
Imagen
Imagen
Imagen
Imagen
Imagen
Imagen
Imagen
Imagen

eMule
ed2k link Femina ridens (Piero Schivazappa, 1969) DVDRemux ed2k link stats

Subtítulos españoles (traducidos por Keller)
https://www.opensubtitles.org/es/subtit ... g-woman-es

Notas: He aquí otra extravaganza, de esas a las que nos tiene acostumbrados el cine italiano de finales de los sesenta a mediados de los setenta. A mitad de camino entre el giallo y otras producciones que comentaron sin prejuicio las transformaciones sociales de la época —incluyendo la segunda ola feminista y los cuestionamientos al machismo y el orden patriarcal— esta película de Piero Schivazappa transita esas ideas en medio de un thriller erótico, con el desparpajo y la ingenuidad habitual en estas producciones, que a pesar de su falta de rigurosidad fueron en su momento una ventana cultural importante para este tipo de preocupaciones. Como ya es habitual, la película tiene problemas de guión, que son eludidos a través de una puesta en escena "psicodélica", que presenta una cuidada fotografía y un remarcable trabajo del departamento de arte. Aunque también hay desnudos masculinos, la actriz sueca Dagmar Lassander —a quien hemos visto en otros filmes de la época como Il rosso segno della follia, Le foto proibite di una signora per bene o L'iguana dalla lingua di fuoco— gana por lejos la exhibición de piel.

Video: Nuevamente, el archivo de video no es un ripeo, sino un DVDRemux. No hay codificación, solo empaqueté el contenido del DVD en un archivo MKV utilizando MakeMKV.

Subtítulos: La traducción de los subtítulos (otro viejo proyecto mío cuya concreción se vio facilitada por el tiempo libre extra que deja la pandemia) es fiel al diálogo italiano y fue sincronizada línea por línea a mano. Dejo enlace a Opensubtiles. Mientras haya acosos no subiré subtítulos a SubDivX. El archivo de video incluye internamente los subtítulos en italiano que venían con el DVD.

Upload: Comparada con la que es estándar en Europa, mi velocidad de upload es muy baja. No obstante, voy a estar por unos días conectado 24/7. Con paciencia, todo baja.

Avatar de Usuario
Dardo
Arrow Thrower Clown
Mensajes: 17102
Registrado: Dom 19 Oct, 2003 02:00
Ubicación: Entre Encinas y Dolomías

Re: Femina ridens (Piero Schivazappa, 1969) DVDRemux VOSE

Mensaje por Dardo » Vie 10 Sep, 2021 08:15

Fenomenal trabajo Keller. :sonrisa:

Avatar de Usuario
Brateh
Amante del Cine
Mensajes: 430
Registrado: Sab 31 Jul, 2010 05:37
Ubicación: Argentina

Re: Femina ridens (Piero Schivazappa, 1969) DVDRemux VOSE

Mensaje por Brateh » Mié 15 Sep, 2021 14:56

Gracias, profe!!!
:D :plas: :plas:
Alta Definición es una necesidad... Bienvenida sea!!

graveland
Mensajes: 234
Registrado: Vie 18 Dic, 2009 21:15

Re: Femina ridens (Piero Schivazappa, 1969) DVDRemux VOSE

Mensaje por graveland » Dom 19 Sep, 2021 12:38

Muchas gracias, profe.

Responder