Framed (Richard Wallace, 1947) HD 1080p VOSE

Publica y encuentra enlaces p2p de filmes hasta 1980 en esta sección.
Responder
santi
Mensajes: 1050
Registrado: Vie 17 Ene, 2003 01:00

Framed (Richard Wallace, 1947) HD 1080p VOSE

Mensaje por santi » Dom 07 Feb, 2021 20:05

Paula (Framed) (They Walk Alone) (Richard Wallace, 1947)

Imagen
Imagen
Filmaffinity | IMDb


Guion: Ben Maddow (Historia: John Patrick)
Música: Marlin Skiles
Fotografía: Burnett Guffey (B&W)
Reparto: Glenn Ford, Janis Carter, Barry Sullivan, Edgar Buchanan, Karen Morley, Jim Bannon
Productora: Columbia Pictures Corporation
Género: Cine negro | Drama | Crimen

Sinopsis:
Mike Lambert, ingeniero de minas sin trabajo, llega a una pequeña ciudad cuando los frenos fallan en el camión que conduce. En el café La Paloma conoce a la seductora Paula... (FILMAFFINITY)

theycame2001 escribió: Sinopsis:

Un ingeniero de minas sin empleo llega a una pequeña ciudad y allí se encuentra con que la situación laboral dista mucho de ser idílica. En el Café La Paloma conoce a una joven muy atractiva llamada Paula, y cuando al poco tiempo se mete en líos con la ley, la joven paga su fianza y le invita a su casa. Pero quizá sus intenciones no son tan buenas como parecen.

Muestra eficiente de cine negro, protagonizado por Glenn Ford, quien acababa de dar el campanazo de su vida con la extraordinaria Gilda. La mujer fatal esta vez es la rubia Janis Carter (Infierno en las nubes).




Gracias a quienes compartieron el BD.
Spoiler: mostrar
Dadas las (extrañas) circunstancias en las que actualmente parecemos movernos en el mundo p2p (en especial, en lo relativo a los trackers privados), de aquí en adelante haré "agradecimientos genéricos" a quienes compartieron la fuente original y no enlazaré a dicha fuente original en mis posts.
Disculpen las molestias
Detalles de la edición


------------------------------

Configuración del ripeo (audio):

QAAC (para AAC):
qaac -V 127 --ignorelength --adts --no-delay -o

------------------------------



Imagen
Imagen
Imagen
Imagen
Imagen
Imagen


Código: Seleccionar todo

 
Format : Matroska 
Format version : Version 4 / Version 2 
File size : 15.6 GiB 
Duration : 1 h 22 min 
Overall bit rate mode : Variable 
Overall bit rate : 27.1 Mb/s 
Writing application : mkvmerge v53.0.0 ('Fool's Gold') 64-bit 
Writing library : libebml v1.4.1 + libmatroska v1.6.2 

Video 
ID : 1 
Format : AVC 
Format/Info : Advanced Video Codec 
Format profile : High@L4.1 
Format settings : CABAC / 3 Ref Frames 
Format settings, CABAC : Yes 
Format settings, RefFrames : 3 frames 
Codec ID : V_MPEG4/ISO/AVC 
Duration : 1 h 22 min 
Bit rate mode : Variable 
Bit rate : 27.0 Mb/s 
Maximum bit rate : 35.0 Mb/s 
Width : 1 440 pixels 
Original width : 1 920 pixels 
Height : 1 080 pixels 
Display aspect ratio : 16:9 
Frame rate mode : Constant 
Frame rate : 23.976 (24000/1001) FPS 
Color space : YUV 
Chroma subsampling : 4:2:0 
Bit depth : 8 bits 
Scan type : Progressive 
Bits/(Pixel*Frame) : 0.724 
Stream size : 15.5 GiB (100%) 
Default : No 
Forced : No 
Color range : Limited 
Color primaries : BT.709 
Transfer characteristics : BT.709 
Matrix coefficients : BT.709 

Audio 
ID : 2 
Format : AAC 
Format/Info : Advanced Audio Codec 
Format profile : LC 
Codec ID : A_AAC-2 
Duration : 1 h 22 min 
Bit rate : 123 kb/s 
Channel(s) : 1 channel 
Channel positions : Front: C 
Sampling rate : 48.0 kHz 
Frame rate : 46.875 FPS (1024 SPF) 
Compression mode : Lossy 
Stream size : 72.6 MiB (0%) 
Language : English 
Writing library : qaac 2.71, CoreAudioToolbox 7.10.9.0
Encoding settings : qaac -V 127 --ignorelength --adts --no-delay -o
VBR min./avg./max. : 4 / 125 / 246 Kb/s. 
Duration.......... : 4944.491 sec., (1h. 22m. 24.491s.)
Default : Yes 
Forced : No 

Text #1 
ID : 3 
Format : UTF-8 
Codec ID : S_TEXT/UTF8 
Codec ID/Info : UTF-8 Plain Text 
Duration : 1 h 22 min 
Bit rate : 55 b/s 
Count of elements : 907 
Stream size : 33.4 KiB (0%) 
Language : Spanish 
Default : Yes 
Forced : No 

Text #2 
ID : 4 
Format : UTF-8 
Codec ID : S_TEXT/UTF8 
Codec ID/Info : UTF-8 Plain Text 
Duration : 1 h 20 min 
Bit rate : 55 b/s 
Count of elements : 1033 
Stream size : 32.6 KiB (0%) 
Language : English 
Default : No 
Forced : No 

Text #3 
ID : 5 
Format : UTF-8 
Codec ID : S_TEXT/UTF8 
Codec ID/Info : UTF-8 Plain Text 
Duration : 1 h 21 min 
Bit rate : 56 b/s 
Count of elements : 1068 
Stream size : 33.3 KiB (0%) 
Title : English SDH 
Language : English 
Default : No 
Forced : No 

Text #4 
ID : 6 
Format : VobSub 
Muxing mode : zlib 
Codec ID : S_VOBSUB 
Codec ID/Info : Picture based subtitle format used on DVDs 
Duration : 1 h 21 min 
Bit rate : 8 858 b/s 
Count of elements : 1069 
Stream size : 5.16 MiB (0%) 
Title : English Vobsubs (SDH) 
Language : English 
Default : No 
Forced : No 

Menu 
00:00:00.000 : :Cpt. 01 
00:07:57.936 : :Cpt. 02 
00:16:40.833 : :Cpt. 03 
00:24:08.822 : :Cpt. 04 
00:32:32.200 : :Cpt. 05 
00:39:06.177 : :Cpt. 06 
00:49:00.479 : :Cpt. 07 
00:56:08.323 : :Cpt. 08 
01:06:59.140 : :Cpt. 09 
01:14:36.013 : :Cpt. 10


Spoiler: mostrar
ed2k://|file|Framed.1947.BDRemux.1080p.AAC.mkv|16765665588|3E9BFFC2E8A28727DE70E3673A464F09|h=N5RGKQP72575ZVOOU5FIUQUGVH2ZCOZE|/

ed2k://|file|Framed.1947.BDRemux.1080p.AAC.zip|81189|0B8EEC372553F508427EE70DB371BCDB|h=BKTUDQ3CHRLCXDBSSTV5AWXCNTDK66WH|/


:arrow: BDRemux V.O. 1080p, con subtítulos en español e inglés en el contenedor MKV (15.61 GBs)

:arrow: Subtítulos por separado
, por si alguien los necesita para... (79 KBs)


Los subtítulos en español son los de Scaramouche & Theycame2001 (muchas gracias) ligeramente corregidos, con pequeños añadidos y resincronizados línea a línea para este ripeo.

Enlaces relacionados en DXC:
Framed (Richard Wallace, 1947) DVDRip VOSE
Paula (Richard Wallace, 1947) SATRip VOSE




:arrow: Cómo buscar archivos en emule. Necesario para buscar lo anterior...





----------------------------------------------------


Imagen Imagen

Última versión del codec x264 (inglés) | Cómo crear BDRips MKV/x264 con UsEac3To + MeGui (español)
Manual de ripeo con x264 en línea de comandos (español) (1) (2) (3) | Parámetros de codificación (inglés)
Matroska en wikipedia (español) | MKVToolnix, herramientas de edición para matroska (inglés) | Añadir cadenas de audio o subtítulos con MKVToolnix (español)
gMKVExtractGUI (inglés) | MKVExtractGui (inglés) | Manual de extracción de cadenas de audio/vídeo/subtítulos en MKV (español)
Nota: Se trata de otro encargo del habitual de la plantilla, yo solo hago el transporte.

Avatar de Usuario
paizoco
Mensajes: 2807
Registrado: Vie 21 Nov, 2003 01:00
Ubicación: Far West

Re: Framed (Richard Wallace, 1947) HD 1080p VO SE

Mensaje por paizoco » Dom 07 Feb, 2021 20:21

Me apunto, muchas gracias.

Avatar de Usuario
Dardo
Arrow Thrower Clown
Mensajes: 16798
Registrado: Dom 19 Oct, 2003 02:00
Ubicación: Entre Encinas y Dolomías

Re: Framed (Richard Wallace, 1947) HD 1080p VO SE

Mensaje por Dardo » Dom 07 Feb, 2021 23:27

Voy a "TrincaRlo" :mrgreen:

Ya la mula como antiguamente diciendo tranquilito eh Dardito.

Gracias R y al ponedor !!! :sonrisa:

ostrata
Mensajes: 2316
Registrado: Mié 24 Mar, 2010 17:29

Re: Framed (Richard Wallace, 1947) HD 1080p VOSE

Mensaje por ostrata » Lun 08 Feb, 2021 05:53

Gracias. :)

Saludos.

Avatar de Usuario
Spanish Jhonny
Mensajes: 3112
Registrado: Mar 18 Sep, 2012 16:01

Re: Framed (Richard Wallace, 1947) HD 1080p VOSE

Mensaje por Spanish Jhonny » Mar 09 Feb, 2021 10:53

Pinchada queda.
Muchas gracias roisiano y santi. :sonrisa:
Un saludo.

Responder