Profumo di donna (Dino Risi, 1974) HD 1080p VOSE

Publica y encuentra enlaces p2p de filmes hasta 1980 en esta sección.
Responder
jotarapidup
Mensajes: 203
Registrado: Jue 10 Dic, 2009 01:02

Profumo di donna (Dino Risi, 1974) HD 1080p VOSE

Mensaje por jotarapidup » Dom 07 Feb, 2021 05:12

Imagen

PERFUME DE MUJER

IMDB

A un joven cadete de la Armada se le ha encomendado la tarea de servir de acompañante a un irascible capitán ciego durante un fin de semana de viaje entre Turín y Nápoles. Del capitán, un hombre bebedor y mujeriego, recibirá el muchacho ciertas lecciones que no podrá olvidar. (FILMAFFINITY)

Dirección
Dino Risi

Guion
Ruggero Maccari, Dino Risi (Novela: Giovanni Arpino)

Música
Armando Trovajoli

Fotografía
Claudio Cirillo

Reparto
Vittorio Gassman, Agostina Belli, Alessandro Momo, Moira Orfei, Franco Ricci, Elena Veronese, Stefania Spugnini, Lorenzo Piani


Imagen

Imagen

Imagen

Imagen

Imagen

Imagen

Imagen

Imagen

Código: Seleccionar todo

General
Unique ID                                : 61697686486388024124757170164411271355 (0x2E6A8ACCFCB31A836650265CA3B208BB)
Complete name                            : C:\Users\\Downloads\eMule\Incoming\Profumo.di.donna.1974.1080p.BluRay.AAC2.0.x264-EA.English.Spanish.Subtitles.mkv
Format                                   : Matroska
Format version                           : Version 4
File size                                : 11.5 GiB
Duration                                 : 1 h 42 min
Overall bit rate                         : 16.1 Mb/s
Movie name                               : Dino Risi - Profumo di donna (1974)
Encoded date                             : UTC 2018-02-13 19:22:34
Writing application                      : mkvmerge v20.0.0 ('I Am The Sun') 64-bit
Writing library                          : libebml v1.3.5 + libmatroska v1.4.8

Video
ID                                       : 1
Format                                   : AVC
Format/Info                              : Advanced Video Codec
Format profile                           : High@L4.1
Format settings                          : CABAC / 4 Ref Frames
Format settings, CABAC                   : Yes
Format settings, Reference frames        : 4 frames
Codec ID                                 : V_MPEG4/ISO/AVC
Duration                                 : 1 h 42 min
Bit rate                                 : 15.9 Mb/s
Width                                    : 1 920 pixels
Height                                   : 1 040 pixels
Display aspect ratio                     : 1.85:1
Frame rate mode                          : Constant
Frame rate                               : 24.000 FPS
Color space                              : YUV
Chroma subsampling                       : 4:2:0
Bit depth                                : 8 bits
Scan type                                : Progressive
Bits/(Pixel*Frame)                       : 0.332
Stream size                              : 11.4 GiB (99%)
Title                                    : -EA
Writing library                          : x264 core 155 r2867+74 66b5600 t_mod_Custom_2 [8-bit@all X86_64]
Encoding settings                        : cabac=1 / ref=4 / deblock=1:-3:-3 / analyse=0x3:0x113 / me=umh / subme=10 / psy=1 / fade_compensate=0.00 / psy_rd=1.04:0.00 / mixed_ref=1 / me_range=32 / chroma_me=1 / trellis=2 / 8x8dct=1 / cqm=0 / deadzone=21,11 / fast_pskip=0 / chroma_qp_offset=-2 / threads=24 / lookahead_threads=4 / sliced_threads=0 / nr=0 / decimate=0 / interlaced=0 / bluray_compat=0 / constrained_intra=0 / fgo=0 / bframes=7 / b_pyramid=2 / b_adapt=2 / b_bias=0 / direct=3 / weightb=1 / open_gop=0 / weightp=2 / keyint=240 / keyint_min=24 / scenecut=40 / intra_refresh=0 / rc_lookahead=60 / rc=crf / mbtree=0 / crf=18.1000 / qcomp=0.75 / qpmin=0:0:0 / qpmax=69:69:69 / qpstep=4 / vbv_maxrate=62500 / vbv_bufsize=78125 / crf_max=0.0 / nal_hrd=none / filler=0 / ip_ratio=1.30 / pb_ratio=1.20 / aq=3:0.75 / aq-sensitivity=10.00 / aq-factor=1.00:1.00:1.00 / aq2=1:0.70 / aq2-sensitivity=15.00 / aq2-factor=1.00:1.00:1.00 / aq3=1:[0.70:0.70]:[0.70:0.70]:[0.70:0.70]:[0.70:0.70] / aq3-sensitivity=10.00 / aq3-factor=[1.00:1.00]:[1.00:1.00]:[1.00:1.00] / aq3-boundary=192:64:24
Language                                 : Italian
Default                                  : Yes
Forced                                   : No
Color range                              : Limited
Color primaries                          : BT.709
Transfer characteristics                 : BT.709
Matrix coefficients                      : BT.709

Audio
ID                                       : 2
Format                                   : AAC LC
Format/Info                              : Advanced Audio Codec Low Complexity
Codec ID                                 : A_AAC-2
Duration                                 : 1 h 42 min
Bit rate                                 : 181 kb/s
Channel(s)                               : 2 channels
Channel layout                           : L R
Sampling rate                            : 48.0 kHz
Frame rate                               : 46.875 FPS (1024 SPF)
Compression mode                         : Lossy
Delay relative to video                  : 20 ms
Stream size                              : 133 MiB (1%)
Language                                 : Italian
Default                                  : Yes
Forced                                   : No

Text #1
ID                                       : 3
Format                                   : UTF-8
Codec ID                                 : S_TEXT/UTF8
Codec ID/Info                            : UTF-8 Plain Text
Duration                                 : 1 h 39 min
Bit rate                                 : 53 b/s
Count of elements                        : 1351
Stream size                              : 38.5 KiB (0%)
Title                                    : srt
Language                                 : English
Default                                  : Yes
Forced                                   : Yes

Text #2
ID                                       : 4
Format                                   : PGS
Muxing mode                              : zlib
Codec ID                                 : S_HDMV/PGS
Codec ID/Info                            : Picture based subtitle format used on BDs/HD-DVDs
Duration                                 : 1 h 39 min
Bit rate                                 : 47.7 kb/s
Count of elements                        : 2626
Stream size                              : 33.9 MiB (0%)
Title                                    : sup
Language                                 : Spanish
Default                                  : No
Forced                                   : No

Menu
00:00:00.000                             : en:00:00:00.000
00:09:56.750                             : en:00:09:56.750
00:16:14.875                             : en:00:16:14.875
00:25:07.625                             : en:00:25:07.625
00:33:51.250                             : en:00:33:51.250
00:41:57.875                             : en:00:41:57.875
00:50:42.500                             : en:00:50:42.500
00:57:35.125                             : en:00:57:35.125
01:07:18.500                             : en:01:07:18.500
01:16:05.750                             : en:01:16:05.750
01:23:24.250                             : en:01:23:24.250
01:31:28.000                             : en:01:31:28.000
01:41:06.000                             : en:01:41:06.000


ed2k linkPERFUME DE MUJER ed2k link stats

Compartido por aoex en KG. La copia lleva subtítulos en español e inglés pertenecientes al bluray.
Brateh escribió:
Lun 08 Feb, 2021 21:42
Para quién los necesite, dejo enlace de subtítulos planos (srt) procesados desde los PGS incluidos y trasladados a "castellano neutro":
https://www.subdivx.com/X6XNjE0NDM0X-pr ... -1974.html
Última edición por jotarapidup el Mar 09 Feb, 2021 20:59, editado 1 vez en total.

Avatar de Usuario
Dardo
Arrow Thrower Clown
Mensajes: 16798
Registrado: Dom 19 Oct, 2003 02:00
Ubicación: Entre Encinas y Dolomías

Re: Profumo di donna (Dino Risi, 1974) HD 1080p VOSE

Mensaje por Dardo » Dom 07 Feb, 2021 08:19

Estás que te sales jota!!!! :plas: :plas:

Agostina Belli por esa fecha traía a media europa loquita...

Avatar de Usuario
paizoco
Mensajes: 2807
Registrado: Vie 21 Nov, 2003 01:00
Ubicación: Far West

Re: Profumo di donna (Dino Risi, 1974) HD 1080p VOSE

Mensaje por paizoco » Dom 07 Feb, 2021 11:35

Me apunto, muchas gracias.

Avatar de Usuario
Spanish Jhonny
Mensajes: 3112
Registrado: Mar 18 Sep, 2012 16:01

Re: Profumo di donna (Dino Risi, 1974) HD 1080p VOSE

Mensaje por Spanish Jhonny » Dom 07 Feb, 2021 11:44

Yo también me apunto, esta versión no la he llegado a ver nunca.
Muchas gracias jotarapidup. ;)
Un saludo.

Avatar de Usuario
baldomp
Mensajes: 431
Registrado: Mar 15 Ago, 2017 12:55

Re: Profumo di donna (Dino Risi, 1974) HD 1080p VOSE

Mensaje por baldomp » Lun 08 Feb, 2021 20:21



Mejoro versión.... y agradezco sinceramente, jotarapidup :plas: :plas: :plas: :plas: :plas:


joramor
Mensajes: 1706
Registrado: Vie 05 Nov, 2010 19:55

Re: Profumo di donna (Dino Risi, 1974) HD 1080p VOSE

Mensaje por joramor » Lun 08 Feb, 2021 20:42

Muchas gracias jotarapidup. Salu2.

Avatar de Usuario
Brateh
Amante del Cine
Mensajes: 413
Registrado: Sab 31 Jul, 2010 05:37
Ubicación: Argentina

Re: Profumo di donna (Dino Risi, 1974) HD 1080p VOSE

Mensaje por Brateh » Lun 08 Feb, 2021 21:42

Para quién los necesite, dejo enlace de subtítulos planos (srt) procesados desde los PGS incluidos y trasladados a "castellano neutro":
https://www.subdivx.com/X6XNjE0NDM0X-pr ... -1974.html
Alta Definición es una necesidad... Bienvenida sea!!

jotarapidup
Mensajes: 203
Registrado: Jue 10 Dic, 2009 01:02

Re: Profumo di donna (Dino Risi, 1974) HD 1080p VOSE

Mensaje por jotarapidup » Mar 09 Feb, 2021 20:59

Muchas gracias Brateh, agregados al post principal.

Responder