Murder by Contract (Irving Lerner, 1958) HD 1080p VOSE

Publica y encuentra enlaces p2p de filmes hasta 1980 en esta sección.
Responder
santi
Mensajes: 1050
Registrado: Vie 17 Ene, 2003 01:00

Murder by Contract (Irving Lerner, 1958) HD 1080p VOSE

Mensaje por santi » Sab 06 Feb, 2021 21:31

Asesinato por contrato (Murder by Contract) (Irving Lerner, 1958)

Imagen
Imagen
Filmaffinity | IMDb

Guion: Ben Simcoe, Ben Maddow
Música: Perry Botkin Jr.
Fotografía: Lucien Ballard (B&W)
Reparto: Vince Edwards, Phillip Pine, Herschel Bernardi, Caprice Toriel, Michael Granger, Kathie Browne, Joseph Mell, Francis Osborne, Steven Ritch, Janet Brandt, Davis Roberts, Don Garrett, Gloria Victor
Productora: Orbit Productions, Columbia Pictures (Distribuidora: Columbia Pictures)
Género: Cine negro | Thriller | Drama | Crimen | Serie B | Película de culto

Sinopsis:
Claude (Vince Edwards) es un despiadado y eficiente asesino a sueldo hasta que descubre que su próximo objetivo es una mujer... (FILMAFFINITY)



Gracias a quienes compartieron el BD.
Spoiler: mostrar
Dadas las (extrañas) circunstancias en las que actualmente parecemos movernos en el mundo p2p (en especial, en lo relativo a los trackers privados), de aquí en adelante haré "agradecimientos genéricos" a quienes compartieron la fuente original y no enlazaré a dicha fuente original en mis posts.
Disculpen las molestias
Detalles de la edición


------------------------------

Configuración del ripeo (audio):

QAAC (para AAC):
qaac -V 127 --ignorelength --adts --no-delay -o

------------------------------



Imagen
Imagen
Imagen
Imagen
Imagen
Imagen
Imagen

Código: Seleccionar todo

 
Format : Matroska 
Format version : Version 4 / Version 2 
File size : 14.7 GiB 
Duration : 1 h 20 min 
Overall bit rate mode : Variable 
Overall bit rate : 26.1 Mb/s 
Writing application : mkvmerge v53.0.0 ('Fool's Gold') 64-bit 
Writing library : libebml v1.4.1 + libmatroska v1.6.2 

Video 
ID : 1 
Format : AVC 
Format/Info : Advanced Video Codec 
Format profile : High@L4.1 
Format settings : CABAC / 3 Ref Frames 
Format settings, CABAC : Yes 
Format settings, RefFrames : 3 frames 
Codec ID : V_MPEG4/ISO/AVC 
Duration : 1 h 20 min 
Bit rate mode : Variable 
Bit rate : 26.0 Mb/s 
Maximum bit rate : 38.0 Mb/s 
Width : 1 920 pixels 
Height : 1 040 pixels 
Original height : 1 080 pixels 
Display aspect ratio : 16:9 
Frame rate mode : Constant 
Frame rate : 23.976 (24000/1001) FPS 
Color space : YUV 
Chroma subsampling : 4:2:0 
Bit depth : 8 bits 
Scan type : Progressive 
Bits/(Pixel*Frame) : 0.543 
Stream size : 14.6 GiB (100%) 
Default : No 
Forced : No 
Color range : Limited 
Color primaries : BT.709 
Transfer characteristics : BT.709 
Matrix coefficients : BT.709 

Audio 
ID : 2 
Format : AAC 
Format/Info : Advanced Audio Codec 
Format profile : LC 
Codec ID : A_AAC-2 
Duration : 1 h 20 min 
Bit rate : 118 kb/s 
Channel(s) : 1 channel 
Channel positions : Front: C 
Sampling rate : 48.0 kHz 
Frame rate : 46.875 FPS (1024 SPF) 
Compression mode : Lossy 
Stream size : 67.8 MiB (0%) 
Language : English 
Writing library : qaac 2.71, CoreAudioToolbox 7.10.9.0
Encoding settings : qaac -V 127 --ignorelength --adts --no-delay -o
VBR min./avg./max. : 4 / 120 / 248 Kb/s. 
Duration.......... : 4829.077 sec., (1h. 20m. 29.077s.)
Default : Yes 
Forced : No 

Text #1 
ID : 3 
Format : UTF-8 
Codec ID : S_TEXT/UTF8 
Codec ID/Info : UTF-8 Plain Text 
Duration : 1 h 17 min 
Bit rate : 61 b/s 
Count of elements : 930 
Stream size : 34.8 KiB (0%) 
Language : Spanish 
Default : Yes 
Forced : No 

Text #2 
ID : 4 
Format : UTF-8 
Codec ID : S_TEXT/UTF8 
Codec ID/Info : UTF-8 Plain Text 
Duration : 1 h 17 min 
Bit rate : 65 b/s 
Count of elements : 1110 
Stream size : 37.5 KiB (0%) 
Language : English 
Default : No 
Forced : No 

Text #3 
ID : 5 
Format : UTF-8 
Codec ID : S_TEXT/UTF8 
Codec ID/Info : UTF-8 Plain Text 
Duration : 1 h 18 min 
Bit rate : 67 b/s 
Count of elements : 1175 
Stream size : 38.9 KiB (0%) 
Title : English SDH 
Language : English 
Default : No 
Forced : No 

Text #4 
ID : 6 
Format : VobSub 
Muxing mode : zlib 
Codec ID : S_VOBSUB 
Codec ID/Info : Picture based subtitle format used on DVDs 
Duration : 1 h 18 min 
Bit rate : 10.8 kb/s 
Count of elements : 1176 
Stream size : 6.07 MiB (0%) 
Title : English Vobsubs (SDH) 
Language : English 
Default : No 
Forced : No 

Menu 
00:00:00.000 : :Cpt. 01 
00:08:07.362 : :Cpt. 02 
00:16:22.565 : :Cpt. 03 
00:23:55.517 : :Cpt. 04 
00:33:01.521 : :Cpt. 05 
00:41:45.128 : :Cpt. 06 
00:48:10.763 : :Cpt. 07 
00:56:05.153 : :Cpt. 08 
01:05:40.854 : :Cpt. 09 
01:14:29.674 : :Cpt. 10


Spoiler: mostrar
ed2k://|file|Murder.by.Contract.1958.BDRemux.1080p.AAC.mkv|15770100931|E0754599DE331129E113C7349897216D|h=DHT4KD6JQ4B4PRTLMG7BCIP3DORRI5PR|/

ed2k://|file|Murder.by.Contract.1958.BDRemux.1080p.AAC.zip|90545|6C27D79CF1DC7E643771F109953C8CAB|h=3447RGM4MCBOIKKK7W4JK2SNEPPNPWQ7|/


:arrow: BDRemux V.O. 1080p, con subtítulos en español e inglés en el contenedor MKV (14.69 GBs)

:arrow: Subtítulos por separado
, por si alguien los necesita para... (88 KBs)


Los subtítulos en español son los de SWZlatan (muchas gracias), aparentemente extraídos de DVD, ligeramente corregidos y resincronizados línea a línea para este ripeo.

Enlaces relacionados en DXC:
Murder by Contract (Irving Lerner, 1958) DVDRip VOSE
Murder by Contract (Irving Lerner, 1958) SATRip VOSE




:arrow: Cómo buscar archivos en emule. Necesario para buscar lo anterior...





----------------------------------------------------


Imagen Imagen

Última versión del codec x264 (inglés) | Cómo crear BDRips MKV/x264 con UsEac3To + MeGui (español)
Manual de ripeo con x264 en línea de comandos (español) (1) (2) (3) | Parámetros de codificación (inglés)
Matroska en wikipedia (español) | MKVToolnix, herramientas de edición para matroska (inglés) | Añadir cadenas de audio o subtítulos con MKVToolnix (español)
gMKVExtractGUI (inglés) | MKVExtractGui (inglés) | Manual de extracción de cadenas de audio/vídeo/subtítulos en MKV (español)
Nota: Posteo realizado por encargo del habitual de la plantilla.

Avatar de Usuario
paizoco
Mensajes: 2807
Registrado: Vie 21 Nov, 2003 01:00
Ubicación: Far West

Re: Murder by Contract (Irving Lerner, 1958) HD 1080p VO SE

Mensaje por paizoco » Sab 06 Feb, 2021 23:27

Me apunto, muchas gracias.

ostrata
Mensajes: 2316
Registrado: Mié 24 Mar, 2010 17:29

Re: Murder by Contract (Irving Lerner, 1958) HD 1080p VO SE

Mensaje por ostrata » Dom 07 Feb, 2021 00:43

Gracias, santi. Te hemos echado de menos. :)

Saludos.

Avatar de Usuario
Dardo
Arrow Thrower Clown
Mensajes: 16798
Registrado: Dom 19 Oct, 2003 02:00
Ubicación: Entre Encinas y Dolomías

Re: Murder by Contract (Irving Lerner, 1958) HD 1080p VO SE

Mensaje por Dardo » Dom 07 Feb, 2021 08:14

Mmmm qué bien, ya echaba de menos estas golosinas del noroeste 8)

Pincho cuando termine el otro ripeo que has subido para ir escalonando.

Y dejo un cartelito que me ha gustado
Spoiler: mostrar

Avatar de Usuario
Spanish Jhonny
Mensajes: 3112
Registrado: Mar 18 Sep, 2012 16:01

Re: Murder by Contract (Irving Lerner, 1958) HD 1080p VO SE

Mensaje por Spanish Jhonny » Dom 07 Feb, 2021 11:39

Muchas gracias :plas: :plas: :plas: :plas: :sonrisa:

torresmostoles
Pasion por los clasicos!!
Mensajes: 182
Registrado: Dom 25 Mar, 2018 18:55
Ubicación: madrid sur

Re: Murder by Contract (Irving Lerner, 1958) HD 1080p VOSE

Mensaje por torresmostoles » Mié 10 Feb, 2021 15:25

Que bueno el amigo santi como siempre dando lo mejor de ti!!..son dias de frio y lluvia y clasicos así no pueden dejarse pasar :plas: :plas: :plas: uno mas del dream team de divx clasico!! :mrgreen:

Minyatur
Mensajes: 125
Registrado: Jue 30 Ene, 2003 01:00

Re: Murder by Contract (Irving Lerner, 1958) HD 1080p VOSE

Mensaje por Minyatur » Mié 10 Feb, 2021 21:23

Que buena calidad de imagen, muchas gracias, da gusto ver claiscos así.

Saludos.

Avatar de Usuario
kabe
Mensajes: 83
Registrado: Dom 28 Feb, 2016 17:27

Re: Murder by Contract (Irving Lerner, 1958) HD 1080p VOSE

Mensaje por kabe » Mié 10 Mar, 2021 10:03

Muchas gracias de nuevo, santi, por compartir. ¿Alguien sería tan amable de poner en lanzamiento los subtítulos? No consigo que bajen. Gracias.

Responder