The Garment Jungle (Vincent Sherman, 1957) HD 1080p Dual SE

Publica y encuentra enlaces p2p de filmes hasta 1980 en esta sección.
Responder
santi
Mensajes: 1050
Registrado: Vie 17 Ene, 2003 01:00

The Garment Jungle (Vincent Sherman, 1957) HD 1080p Dual SE

Mensaje por santi » Sab 06 Feb, 2021 21:21

Bestias de la ciudad (The Garment Jungle) (Vincent Sherman, 1957)

Imagen
Imagen
Imagen
Filmaffinity | IMDb

Guion: Harry Kleiner (Artículo: Lester Velie)
Música: Leith Stevens
Fotografía: Joseph F. Biroc (B&W)
Reparto: Lee J. Cobb, Kerwin Mathews, Gia Scala, Richard Boone, Valerie French, Robert Loggia, Joseph Wiseman, Harold J. Stone, Adam Williams, Wesley Addy, Willis Bouchey, Robert Ellenstein, Celia Lovsky
Productora: Columbia Pictures
Género: Cine negro | Drama

Sinopsis:
Tulio Renata (Robert Loggia), un lider del Sindicato Internacional de los Trabajadores de la Moda, lucha por integrar en el sindicato a los empleados de la fábrica textil de Walter Mitchell (Lee J. Cobb); pero éste, para impedirlo, contrata a Artie Ravidge (Richard Boone). El hijo de Walter, Alan Mitchell (Kerwin Matthews) vuelve a casa y se incorpora a la empresa tras la sospechosa muerte del socio de su padre. (FILMAFFINITY)




Gracias a quienes compartieron el BD.
Spoiler: mostrar
Dadas las (extrañas) circunstancias en las que actualmente parecemos movernos en el mundo p2p (en especial, en lo relativo a los trackers privados), de aquí en adelante haré "agradecimientos genéricos" a quienes compartieron la fuente original y no enlazaré a dicha fuente original en mis posts.
Disculpen las molestias
Detalles de la edición


------------------------------

Configuración del ripeo (vídeo / audio):

x264:
"C:\x264.exe" --preset veryslow --tune film --crf 19.8 --qcomp 0.58 --deblock -2:-1 --no-chroma-me --level 4.1 --output "C:\mi_ripeo.mkv" "C:\mi_script.avs"


QAAC (para AAC):
qaac -V 127 --ignorelength --adts --no-delay -o

------------------------------


Imagen
Imagen
Imagen
Imagen
Imagen
Imagen
Imagen
Imagen
Imagen
Imagen
Imagen


Código: Seleccionar todo

Format : Matroska 
Format version : Version 4 
File size : 12.1 GiB 
Duration : 1 h 27 min 
Overall bit rate : 19.8 Mb/s 
Writing application : mkvmerge v51.0.0 ('I Wish') 64-bit 
Writing library : libebml v1.4.0 + libmatroska v1.6.2 

Video 
ID : 1 
Format : AVC 
Format/Info : Advanced Video Codec 
Format profile : High@L4.1 
Format settings : CABAC / 4 Ref Frames 
Format settings, CABAC : Yes 
Format settings, Reference frames : 4 frames 
Codec ID : V_MPEG4/ISO/AVC 
Duration : 1 h 27 min 
Bit rate : 19.4 Mb/s 
Width : 1 920 pixels 
Height : 1 040 pixels 
Display aspect ratio : 1.85:1 
Frame rate mode : Constant 
Frame rate : 23.976 (24000/1001) FPS 
Color space : YUV 
Chroma subsampling : 4:2:0 
Bit depth : 8 bits 
Scan type : Progressive 
Bits/(Pixel*Frame) : 0.405 
Stream size : 11.9 GiB (98%) 
Writing library : x264 core 161 r3027 4121277 
Encoding settings : cabac=1 / ref=4 / deblock=1:-2:-1 / analyse=0x3:0x133 / me=umh / subme=10 / psy=1 / psy_rd=1.00:0.15 / mixed_ref=1 / me_range=24 / chroma_me=0 / trellis=2 / 8x8dct=1 / cqm=0 / deadzone=21,11 / fast_pskip=1 / chroma_qp_offset=-3 / threads=6 / lookahead_threads=1 / sliced_threads=0 / nr=0 / decimate=1 / interlaced=0 / bluray_compat=0 / constrained_intra=0 / bframes=8 / b_pyramid=2 / b_adapt=2 / b_bias=0 / direct=3 / weightb=1 / open_gop=0 / weightp=2 / keyint=250 / keyint_min=23 / scenecut=40 / intra_refresh=0 / rc_lookahead=60 / rc=crf / mbtree=1 / crf=19.8 / qcomp=0.58 / qpmin=0 / qpmax=69 / qpstep=4 / ip_ratio=1.40 / aq=1:1.00 
Language : English 
Default : Yes 
Forced : No 

Audio #1 
ID : 2 
Format : AAC LC 
Format/Info : Advanced Audio Codec Low Complexity 
Codec ID : A_AAC-2 
Duration : 1 h 27 min 
Bit rate : 151 kb/s 
Channel(s) : 1 channel 
Channel layout : C 
Sampling rate : 48.0 kHz 
Frame rate : 46.875 FPS (1024 SPF) 
Compression mode : Lossy 
Stream size : 94.8 MiB (1%) 
Language : English 
Writing library : qaac 2.71, CoreAudioToolbox 7.10.9.0
Encoding settings : qaac -V 127 --ignorelength --adts --no-delay -o
VBR min./avg./max. : 4 / 153 / 253 Kb/s. 
Duration.......... : 5269.483 sec., (1h. 27m. 49.483s.)
Default : Yes 
Forced : No 

Audio #2 
ID : 3 
Format : AC-3 
Format/Info : Audio Coding 3 
Commercial name : Dolby Digital 
Codec ID : A_AC3 
Duration : 1 h 27 min 
Bit rate mode : Constant 
Bit rate : 192 kb/s 
Channel(s) : 2 channels 
Channel layout : L R 
Sampling rate : 48.0 kHz 
Frame rate : 31.250 FPS (1536 SPF) 
Compression mode : Lossy 
Delay relative to video : 52 ms 
Stream size : 121 MiB (1%) 
Title : Doblaje de TV 
Language : Spanish 
Service kind : Complete Main 
Default : No 
Forced : No 

Text #1 
ID : 4 
Format : UTF-8 
Codec ID : S_TEXT/UTF8 
Codec ID/Info : UTF-8 Plain Text 
Duration : 1 h 27 min 
Bit rate : 67 b/s 
Count of elements : 1055 
Stream size : 43.1 KiB (0%) 
Language : Spanish 
Default : Yes 
Forced : No 

Text #2 
ID : 5 
Format : UTF-8 
Codec ID : S_TEXT/UTF8 
Codec ID/Info : UTF-8 Plain Text 
Duration : 1 h 27 min 
Bit rate : 64 b/s 
Count of elements : 1146 
Stream size : 41.4 KiB (0%) 
Language : English 
Default : No 
Forced : No 

Text #3 
ID : 6 
Format : UTF-8 
Codec ID : S_TEXT/UTF8 
Codec ID/Info : UTF-8 Plain Text 
Duration : 1 h 27 min 
Bit rate : 66 b/s 
Count of elements : 1188 
Stream size : 42.5 KiB (0%) 
Title : English SDH 
Language : English 
Default : No 
Forced : No 

Text #4 
ID : 7 
Format : UTF-8 
Codec ID : S_TEXT/UTF8 
Codec ID/Info : UTF-8 Plain Text 
Duration : 55 min 23 s 
Bit rate : 0 b/s 
Count of elements : 3 
Stream size : 100 Bytes (0%) 
Title : Forzados 
Language : Spanish 
Default : No 
Forced : Yes 

Text #5 
ID : 8 
Format : VobSub 
Muxing mode : zlib 
Codec ID : S_VOBSUB 
Codec ID/Info : Picture based subtitle format used on DVDs 
Duration : 1 h 27 min 
Bit rate : 10.5 kb/s 
Count of elements : 1189 
Stream size : 6.57 MiB (0%) 
Title : English Vobsubs (SDH) 
Language : English 
Default : No 
Forced : No 

Menu 
00:00:00.000 : :Cpt. 01 
00:10:24.916 : :Cpt. 02 
00:18:43.372 : :Cpt. 03 
00:26:05.522 : :Cpt. 04 
00:36:15.256 : :Cpt. 05 
00:42:57.742 : :Cpt. 06 
00:52:43.952 : :Cpt. 07 
00:59:38.241 : :Cpt. 08 
01:11:13.728 : :Cpt. 09 
01:18:21.238 : :Cpt. 10



:arrow: BDRip Dual (V.O. - doblaje en castellano) 1080p, con subtítulos en español e inglés en el contenedor MKV ( GBs)

:arrow: Subtítulos por separado
, por si alguien los necesita para... ( KBs)

Spoiler: mostrar
ed2k://|file|The.Garment.Jungle.1957.BDRip.x264.1080p.AAC.Dual.mkv|13015898250|211A1FE15CFC045B4BFFF295474590A4|h=U5HYYQVJ7I6P6HMFQZXVQ46HZCQ6FXSR|/

ed2k://|file|The.Garment.Jungle.1957.BDRip.x264.1080p.AAC.Dual.zip|97451|7907A1387E3F52FA5A90B729F643AEED|h=VF7C7SJXDOK2IQCNDBP76RRUMGXLD4EX|/


Los subtítulos en español fueron creados por el Grupo de Traduccion Noirestyle (muchas gracias a todos los que colaboraron en ellos), y han sido adaptados para este ripeo.


El doblaje no tiene fecha en la ficha que hay en www.eldoblaje.com , pero parece tratarse de algo realizado para su emisión en canales de tv recientes, o quizá para edición en DVD, quién sabe. En cualquier caso, sin interés doblófilo, aunque los esquivadores de voses lo agradecerán. La fuente de trabajo fue tomada de un ripeo de la mula de exploradoresp2p, con algún pequeño retoque para este nuevo vídeo, que en esta ocasión realizó el propio habitual de la plantilla, no este posteador accidental.

Enlaces relacionados en DXC:
The Garment Jungle (Vincent Sherman, 1957) DVDRip Dual SE
Bestias de la ciudad (Vincent Sherman, 1957) VHSRip Español



:arrow: Cómo buscar archivos en emule. Necesario para buscar lo anterior...





----------------------------------------------------


Imagen Imagen

Última versión del codec x264 (inglés) | Cómo crear BDRips MKV/x264 con UsEac3To + MeGui (español)
Manual de ripeo con x264 en línea de comandos (español) (1) (2) (3) | Parámetros de codificación (inglés)
Matroska en wikipedia (español) | MKVToolnix, herramientas de edición para matroska (inglés) | Añadir cadenas de audio o subtítulos con MKVToolnix (español)
gMKVExtractGUI (inglés) | MKVExtractGui (inglés) | Manual de extracción de cadenas de audio/vídeo/subtítulos en MKV (español)
Nota: Posteo este realizado por encargo del habitual de la plantilla, yo posteo, nada más.

Avatar de Usuario
paizoco
Mensajes: 2807
Registrado: Vie 21 Nov, 2003 01:00
Ubicación: Far West

Re: The Garment Jungle (Vincent Sherman, 1957) HD 1080p Dual SE

Mensaje por paizoco » Sab 06 Feb, 2021 23:32

Me apunto, muchas gracias.

ostrata
Mensajes: 2316
Registrado: Mié 24 Mar, 2010 17:29

Re: The Garment Jungle (Vincent Sherman, 1957) HD 1080p Dual SE

Mensaje por ostrata » Dom 07 Feb, 2021 00:38

Gracias. :)

Saludos.

Avatar de Usuario
Dardo
Arrow Thrower Clown
Mensajes: 16798
Registrado: Dom 19 Oct, 2003 02:00
Ubicación: Entre Encinas y Dolomías

Re: The Garment Jungle (Vincent Sherman, 1957) HD 1080p Dual SE

Mensaje por Dardo » Dom 07 Feb, 2021 08:09

Ojo que vuelve la dupla para el Open de Australia :mrgreen:

Vamos a por ella no? :sonrisa:

chema98
Mensajes: 8
Registrado: Sab 05 Oct, 2002 02:00

Re: The Garment Jungle (Vincent Sherman, 1957) HD 1080p Dual SE

Mensaje por chema98 » Dom 07 Feb, 2021 13:19

Muchas gracias!!

Avatar de Usuario
Spanish Jhonny
Mensajes: 3112
Registrado: Mar 18 Sep, 2012 16:01

Re: The Garment Jungle (Vincent Sherman, 1957) HD 1080p Dual SE

Mensaje por Spanish Jhonny » Lun 08 Feb, 2021 09:49

Pinchada.
Muchas gracias roisiano y santi. :sonrisa:
Un saludo.

Responder