Terroristi a Madrid (Margarita Alexandre Rafael Torrecilla,1955) HD 1080p Dual

Publica y encuentra enlaces p2p de filmes hasta 1980 en esta sección.
Responder
felipemarlou
Mensajes: 460
Registrado: Lun 07 Oct, 2013 15:18

Terroristi a Madrid (Margarita Alexandre Rafael Torrecilla,1955) HD 1080p Dual

Mensaje por felipemarlou » Dom 31 Ene, 2021 22:10

RobinsondeMantua en Karagarga

Imagen

Terroristi a Madrid (1955)
aka La ciudad perdida (España)

Dirección
Margarita Alexandre, Rafael María Torrecilla

Guion
Margarita Alexandre, Rafael María Torrecilla, José Luis Barbero (Novela: Mercedes Fórmica)

Música
Miguel Asins Barbó

Fotografía
Renato del Frate

IDIOMA: CAST/ ITALIANO


Productora
Coproducción España-Italia; Pico Films / Nervión Films

Duración 78 min

https://www.imdb.com/title/tt0046861/?ref_=ttco_co_tt


Reparto
Cosetta Greco, Fausto Tozzi, María Dolores Pradera, Félix Dafauce, Nani Fernández, Manolo Morán, Santiago Rivero, Alessandro Fersen, Emma Baron


Sinopsis:

Rafa, un exiliado republicano de la Guerra Civil, regresa a su ciudad natal para llevar a cabo una acción contra el régimen de Franco. La misión fracasa, y en su intento de escapar, Rafa secuestra a una mujer de clase alta. (FILMAFFINITY)

Imagen

Imagen

Imagen

Imagen

Comentarios:

https://macguffin007.com/2018/10/19/la- ... o-espanol/

CINEFILIA SANT MIQUEL
Lo amputado y depauperado de la copia de este filme es un primer indicio de que su relación con la censura franquista no debió de ser precisamente placentera. Y es que atreverse a hablar, a mediados de la década de los cincuenta, de maquis y de antiguos republicanos, por muy venidos a menos que éstos sean o por más que el tratamiento recibido en el guion fuese el de simples terroristas o vulgares delincuentes comunes, era en plena dictadura, poco más o menos, como mencionar al diablo.

Osadía que, en el caso del título español, llegaba a la temeridad de referirse a Madrid mediante el calificativo de perdida, en clara alusión al bando vencido. De ahí que la película, un soberbio ejercicio de cine negro a cargo de la pareja artística (y sentimental) que formaban la actriz Margarita Alexandre y el crítico Rafael Torrecilla, adquiera progresivamente el tono de evocación a través de continuos flashback que retrotraen al protagonista a los inicios de la Guerra civil.
CINEFILIA SANT MIQUEL
(http://cinefiliasantmiquel.blogspot.com ... -1955.html)


https://hipocritalectora.wordpress.com/ ... a-de-1950/


Capturas:
Imagen
Imagen
Imagen
Imagen
Imagen
Imagen

Datos técnicos:
Spoiler: mostrar
General
Unique ID : 332991188560721960722113516037947623988 (0xFA83C52704A2BBBFBB9A51E80F358A34)
Complete name : La.ciudad.perdida.1954.1080p.FO.WEB-DL.AAC2.0.H.264-CREATiVE.mkv
Format : Matroska
Format version : Version 4 / Version 2
File size : 3.08 GiB
Duration : 1 h 18 min
Overall bit rate : 5 627 kb/s
Movie name : La ciudad perdida 1954 1080p FO WEB-DL AAC2.0 H.264-CREATiVE
Encoded date : UTC 2019-04-07 10:34:48
Writing application : mkvmerge v25.0.0 ('Prog Noir') 64-bit
Writing library : libebml v1.3.6 + libmatroska v1.4.9

Video
ID : 1
Format : AVC
Format/Info : Advanced Video Codec
Format profile : High@L4
Format settings : CABAC / 4 Ref Frames
Format settings, CABAC : Yes
Format settings, RefFrames : 4 frames
Codec ID : V_MPEG4/ISO/AVC
Duration : 1 h 18 min
Bit rate : 5 240 kb/s
Width : 1 920 pixels
Height : 1 080 pixels
Display aspect ratio : 16:9
Frame rate mode : Constant
Frame rate : 25.000 FPS
Color space : YUV
Chroma subsampling : 4:2:0
Bit depth : 8 bits
Scan type : Progressive
Bits/(Pixel*Frame) : 0.101
Stream size : 2.87 GiB (93%)
Default : Yes
Forced : No

Audio #1
ID : 2
Format : AAC
Format/Info : Advanced Audio Codec
Format profile : LC
Codec ID : A_AAC-2
Duration : 1 h 18 min
Bit rate : 192 kb/s
Channel(s) : 2 channels
Channel positions : Front: L R
Sampling rate : 48.0 kHz
Frame rate : 46.875 FPS (1024 SPF)
Compression mode : Lossy
Stream size : 108 MiB (3%)
Language : Spanish
Default : Yes
Forced : No

Audio #2
ID : 3
Format : AAC
Format/Info : Advanced Audio Codec
Format profile : LC
Codec ID : A_AAC-2
Duration : 1 h 18 min
Bit rate : 192 kb/s
Channel(s) : 2 channels
Channel positions : Front: L R
Sampling rate : 48.0 kHz
Frame rate : 46.875 FPS (1024 SPF)
Compression mode : Lossy
Stream size : 108 MiB (3%)
Language : Italian
Default : No
Forced : No


Imagen


Enlace al emule:
ed2k linkLa.ciudad.perdida.1954.1080p.FO.WEB-DL.AAC2.0.H.264-CREATiVE.mkv ed2k link stats

Avatar de Usuario
baldomp
Mensajes: 431
Registrado: Mar 15 Ago, 2017 12:55

Re: Terroristi a Madrid (Margarita Alexandre Rafael Torrecilla,1955) HD 1080p Du

Mensaje por baldomp » Mié 03 Feb, 2021 07:25

Una película que si he visto alguna vez, sinceramente no recuerdo. Gracias, felipemarlou.

Minyatur
Mensajes: 125
Registrado: Jue 30 Ene, 2003 01:00

Re: Terroristi a Madrid (Margarita Alexandre Rafael Torrecilla,1955) HD 1080p Du

Mensaje por Minyatur » Jue 04 Feb, 2021 21:41

Yo también me apunto, la desconocia por completo.

Gracias.

Responder