La ciudad perdida (Margarita Alexandre & Rafael Torrecilla,1955) TVRip 1080p

Publica y encuentra enlaces p2p de filmes hasta 1980 en esta sección.
Responder
felipemarlou
Mensajes: 460
Registrado: Lun 07 Oct, 2013 15:18

La ciudad perdida (Margarita Alexandre & Rafael Torrecilla,1955) TVRip 1080p

Mensaje por felipemarlou » Sab 30 Ene, 2021 22:43

Lola45 en exploradoresp2p.com

Imagen

La ciudad perdida (1955)

aka Terroristi a Madrid (Italia)

Dirección
Margarita Alexandre, Rafael María Torrecilla

Guion
Margarita Alexandre, Rafael María Torrecilla, José Luis Barbero (Novela: Mercedes Fórmica)

Música
Miguel Asins Barbó

Fotografía
Renato del Frate


Productora
Coproducción España-Italia; Pico Films / Nervión Films

Duración
83 min.


https://www.imdb.com/title/tt0046861/?ref_=ttco_co_tt


Reparto
Cosetta Greco, Fausto Tozzi, María Dolores Pradera, Félix Dafauce, Nani Fernández, Manolo Morán, Santiago Rivero, Alessandro Fersen, Emma Baron


Sinopsis:

Rafa, un exiliado republicano de la Guerra Civil, regresa a su ciudad natal para llevar a cabo una acción contra el régimen de Franco. La misión fracasa, y en su intento de escapar, Rafa secuestra a una mujer de clase alta. (FILMAFFINITY)

Imagen

Imagen

Comentarios:

CINEFILIA SANT MIQUEL
Lo amputado y depauperado de la copia de este filme es un primer indicio de que su relación con la censura franquista no debió de ser precisamente placentera. Y es que atreverse a hablar, a mediados de la década de los cincuenta, de maquis y de antiguos republicanos, por muy venidos a menos que éstos sean o por más que el tratamiento recibido en el guion fuese el de simples terroristas o vulgares delincuentes comunes, era en plena dictadura, poco más o menos, como mencionar al diablo.

Osadía que, en el caso del título español, llegaba a la temeridad de referirse a Madrid mediante el calificativo de perdida, en clara alusión al bando vencido. De ahí que la película, un soberbio ejercicio de cine negro a cargo de la pareja artística (y sentimental) que formaban la actriz Margarita Alexandre y el crítico Rafael Torrecilla, adquiera progresivamente el tono de evocación a través de continuos flashback que retrotraen al protagonista a los inicios de la Guerra civil.
CINEFILIA SANT MIQUEL
(http://cinefiliasantmiquel.blogspot.com ... -1955.html)


https://hipocritalectora.wordpress.com/ ... a-de-1950/


Capturas:
Imagen
Imagen
Imagen
Imagen
Imagen
Imagen
Imagen
Imagen
Imagen
Imagen
Imagen

Película grabada por nuestro compañero Aladino y que compartimos en Exploradoresp2p. Muchas gracias.


Datos técnicos:
Spoiler: mostrar
General
Unique ID
Complete name : La.ciudad.perdida.(Margarita.Alexandre,Rafael.Maria.Torrecilla,1955).(Spanish).HDTVrip.x264-AC3.mkv
Format : Matroska
Format version : Version 4 / Version 2
File size : 1.09 GiB
Duration : 1h 8mn
Overall bit rate : 2 303 Kbps
Encoded date : UTC 2019-03-09 21:29:29
Writing application : mkvmerge v31.0.0 ('Dolores In A Shoestand') 64-bit
Writing library : libebml v1.3.6 + libmatroska v1.4.9

Video
ID : 1
Format : AVC
Format/Info : Advanced Video Codec
Format profile : Main@L4
Format settings, CABAC : Yes
Format settings, ReFrames : 4 frames
Codec ID : V_MPEG4/ISO/AVC
Duration : 1h 8mn
Bit rate : 2 066 Kbps
Width : 1 920 pixels
Height : 1 080 pixels
Display aspect ratio : 16:9
Frame rate mode : Constant
Frame rate : 25.000 fps
Color space : YUV
Chroma subsampling : 4:2:0
Bit depth : 8 bits
Scan type : Progressive
Bits/(Pixel*Frame) : 0.040
Stream size : 1 005 MiB (90%)
Title : La.ciudad.perdida.(Margarita.Alexandre,Rafael.Maria.Torrecilla,1955).(Spanish).HDTVrip.x264-AC3.mkv
Writing library : x264 core 155 r2901 7d0ff22
Encoding settings : cabac=1 / ref=3 / deblock=1:0:0 / analyse=0x1:0x111 / me=hex / subme=7 / psy=1 / psy_rd=1.00:0.00 / mixed_ref=1 / me_range=16 / chroma_me=1 / trellis=1 / 8x8dct=0 / cqm=0 / deadzone=21,11 / fast_pskip=1 / chroma_qp_offset=-2 / threads=6 / lookahead_threads=1 / sliced_threads=0 / nr=0 / decimate=1 / interlaced=0 / bluray_compat=0 / constrained_intra=0 / bframes=3 / b_pyramid=2 / b_adapt=1 / b_bias=0 / direct=1 / weightb=1 / open_gop=0 / weightp=2 / keyint=300 / keyint_min=30 / scenecut=40 / intra_refresh=0 / rc_lookahead=40 / rc=crf / mbtree=1 / crf=20.0 / qcomp=0.60 / qpmin=0 / qpmax=69 / qpstep=4 / vbv_maxrate=20000 / vbv_bufsize=25000 / crf_max=0.0 / nal_hrd=none / filler=0 / ip_ratio=1.40 / aq=1:1.00
Default : Yes
Forced : No
Color range : Limited
Color primaries : BT.709
Transfer characteristics : BT.709
Matrix coefficients : BT.709
DURATION : 01:08:00.033000000
NUMBER_OF_FRAMES : 102001
NUMBER_OF_BYTES : 1075940209
_STATISTICS_WRITING_APP : mkvmerge v31.0.0 ('Dolores In A Shoestand') 64-bit
_STATISTICS_WRITING_DATE_UTC : 2019-03-09 21:29:29
_STATISTICS_TAGS : BPS DURATION NUMBER_OF_FRAMES NUMBER_OF_BYTES

Audio
ID : 2
Format : AC-3
Format/Info : Audio Coding 3
Mode extension : CM (complete main)
Format settings, Endianness : Big
Codec ID : A_AC3
Duration : 1h 8mn
Bit rate mode : Constant
Bit rate : 192 Kbps
Channel(s) : 2 channels
Channel positions : Front: L R
Sampling rate : 48.0 KHz
Compression mode : Lossy
Delay relative to video : 10ms
Stream size : 93.4 MiB (8%)
Title : Spanish
Language : Spanish
Default : Yes
Forced : No
DURATION : 01:08:00.160000000
NUMBER_OF_FRAMES : 127505
NUMBER_OF_BYTES : 97923840
_STATISTICS_WRITING_APP : mkvmerge v31.0.0 ('Dolores In A Shoestand') 64-bit
_STATISTICS_WRITING_DATE_UTC : 2019-03-09 21:29:29
_STATISTICS_TAGS : BPS DURATION NUMBER_OF_FRAMES NUMBER_OF_BYTES


Imagen


Enlace al emule:

ed2k linkLa.ciudad.perdida.(Margarita.Alexandre,Rafael.Maria.Torrecilla,1955).(Spanish).HDTVrip.x264-AC3.mkv ed2k link stats

Avatar de Usuario
hector Glauco
Mensajes: 580
Registrado: Lun 10 Ago, 2015 14:13
Ubicación: En el Tarragonés y FDL2

Re: La ciudad perdida (Margarita Alexandre & Rafael Torrecilla,1955) TVRip 1080p

Mensaje por hector Glauco » Dom 31 Ene, 2021 17:39

Grandísimo aporte. Merci Felipe.

Responder