La isla de los dinosaurios (Rafael Portillo, 1967) DVDRip

Publica y encuentra enlaces p2p de filmes hasta 1980 en esta sección.
jotarapidup
Mensajes: 203
Registrado: Jue 10 Dic, 2009 01:02

La isla de los dinosaurios (Rafael Portillo, 1967) DVDRip

Mensaje por jotarapidup » Sab 30 Ene, 2021 05:02

Imagen

LA ISLA DE LOS DINOSAURIOS

IMDB

Una expedición cientifica en busca de los restos de la mitica Atlantida va a parar a una extraña isla, un lugar donde el tiempo parece haberse parado y en el que conviven una tribu de cavernicolas y una increible serie de dinosaurios y monstruos prehistoricos. (FILMAFFINITY)

País
México México

Dirección
Rafael Portillo

Guion
Alfredo Salazar

Música
Gustavo César Carrión

Fotografía
Agustín Jiménez (B&W)

Reparto
Armando Silvestre, Alma Delia Fuentes, Manolo Fábregas, Elsa Cárdenas, Genaro Moreno, Crox Alvarado, Cavernario Galindo, Cecilia Leger, Xochitl Flores, Reyes Oliva, Julie Janssen, Jesús 'Murciélago' Velázquez


Imagen

Imagen

Imagen

Imagen

Imagen

Código: Seleccionar todo

eneral
Unique ID                                : 191359378888206505929145542178298590271 (0x8FF679CDA2F191CC9A333D7276D6F43F)
Complete name                            : C:\Users\Joaquin Concha\Downloads\eMule\Incoming\Rafael Portillo - La isla de los dinosaurios.DVDRp.x264.AC3-KG.mkv
Format                                   : Matroska
Format version                           : Version 4
File size                                : 1 017 MiB
Duration                                 : 1 h 19 min
Overall bit rate                         : 1 796 kb/s
Encoded date                             : UTC 2015-03-10 17:11:11
Writing application                      : mkvmerge v7.0.0 ('Where We Going') 32bit built on Jun  9 2014 15:08:34
Writing library                          : libebml v1.3.0 + libmatroska v1.4.1

Video
ID                                       : 1
Format                                   : AVC
Format/Info                              : Advanced Video Codec
Format profile                           : High@L3.1
Format settings                          : CABAC / 8 Ref Frames
Format settings, CABAC                   : Yes
Format settings, Reference frames        : 8 frames
Codec ID                                 : V_MPEG4/ISO/AVC
Duration                                 : 1 h 19 min
Bit rate                                 : 1 600 kb/s
Width                                    : 720 pixels
Height                                   : 480 pixels
Display aspect ratio                     : 4:3
Frame rate mode                          : Constant
Frame rate                               : 23.976 (24000/1001) FPS
Color space                              : YUV
Chroma subsampling                       : 4:2:0
Bit depth                                : 8 bits
Scan type                                : Progressive
Bits/(Pixel*Frame)                       : 0.193
Stream size                              : 907 MiB (89%)
Writing library                          : x264 core 142 r2431 ac76440
Encoding settings                        : cabac=1 / ref=8 / deblock=1:-3:-3 / analyse=0x3:0x133 / me=umh / subme=9 / psy=1 / psy_rd=1.00:0.15 / mixed_ref=1 / me_range=28 / chroma_me=0 / trellis=2 / 8x8dct=1 / cqm=0 / deadzone=21,11 / fast_pskip=0 / chroma_qp_offset=-3 / threads=3 / lookahead_threads=1 / sliced_threads=0 / nr=0 / decimate=0 / interlaced=0 / bluray_compat=0 / constrained_intra=0 / bframes=8 / b_pyramid=2 / b_adapt=2 / b_bias=0 / direct=3 / weightb=1 / open_gop=0 / weightp=2 / keyint=240 / keyint_min=23 / scenecut=40 / intra_refresh=0 / rc_lookahead=240 / rc=2pass / mbtree=1 / bitrate=1600 / ratetol=3.0 / qcomp=0.70 / qpmin=0 / qpmax=69 / qpstep=4 / cplxblur=20.0 / qblur=0.5 / vbv_maxrate=14000 / vbv_bufsize=14000 / nal_hrd=none / filler=0 / ip_ratio=1.40 / aq=1:1.00
Language                                 : English
Default                                  : Yes
Forced                                   : No

Audio
ID                                       : 2
Format                                   : AC-3
Format/Info                              : Audio Coding 3
Commercial name                          : Dolby Digital
Codec ID                                 : A_AC3
Duration                                 : 1 h 19 min
Bit rate mode                            : Constant
Bit rate                                 : 192 kb/s
Channel(s)                               : 2 channels
Channel layout                           : L R
Sampling rate                            : 48.0 kHz
Frame rate                               : 31.250 FPS (1536 SPF)
Compression mode                         : Lossy
Stream size                              : 109 MiB (11%)
Service kind                             : Complete Main
Default                                  : Yes
Forced                                   : No

Text #1
ID                                       : 3
Format                                   : VobSub
Muxing mode                              : zlib
Codec ID                                 : S_VOBSUB
Codec ID/Info                            : Picture based subtitle format used on DVDs
Duration                                 : 1 h 18 min
Bit rate                                 : 529 b/s
Count of elements                        : 324
Stream size                              : 303 KiB (0%)
Language                                 : Russian
Default                                  : Yes
Forced                                   : No

Text #2
ID                                       : 4
Format                                   : VobSub
Muxing mode                              : zlib
Codec ID                                 : S_VOBSUB
Codec ID/Info                            : Picture based subtitle format used on DVDs
Duration                                 : 10 s 399 ms
Bit rate                                 : 37 b/s
Count of elements                        : 1
Stream size                              : 49.0 Bytes (0%)
Language                                 : English
Default                                  : No
Forced                                   : No

Text #3
ID                                       : 5
Format                                   : VobSub
Muxing mode                              : zlib
Codec ID                                 : S_VOBSUB
Codec ID/Info                            : Picture based subtitle format used on DVDs
Duration                                 : 1 h 18 min
Bit rate                                 : 582 b/s
Count of elements                        : 314
Stream size                              : 336 KiB (0%)
Language                                 : English
Default                                  : No
Forced                                   : No


ed2k linkLA ISLA DE LOS DINOSAURIOS ed2k link stats

DVDrip de ronnie para kg. Ahí tienes, para que aprendas a filmar dinosaurios Spielberg

Responder