Requiescant (Carlo Lizzani, 1967) BDRip VOSE

Publica y encuentra enlaces p2p de filmes hasta 1980 en esta sección.
Responder
jotarapidup
Mensajes: 203
Registrado: Jue 10 Dic, 2009 01:02

Requiescant (Carlo Lizzani, 1967) BDRip VOSE

Mensaje por jotarapidup » Dom 24 Ene, 2021 03:48

Imagen

DESCANSEN EN PAZ

IMDB

Western de autor, dirigido por Carlo Lizzani, que cuenta con la excepcional presencia de Pier Paolo Pasolini en el reparto, junto con Mark Damon y Lou Castel. En México, un niño que escapó de la masacre familiar es criado por un pastor evangélico hasta que, una vez que se ha convertido en un hábil pistolero, busca su venganza, encontrando a su hermana y adhiriéndose a los ideales de la Revolución.(FILMAFFINITY)

Imagen

Imagen

Imagen

Imagen

Imagen

Imagen

Imagen

Imagen

Imagen

Imagen

Imagen

Código: Seleccionar todo

General
Unique ID                                : 138758271067103565847435602463762429964 (0x6863DEF52265C8E0F379C0FF6DD4380C)
Complete name                            : C:\Users\Downloads\eMule\Incoming\Requiescant.AKA.Kill.and.Pray.1967.Dual.576p.BluRay.AAC.x264-HANDJOB.mkv
Format                                   : Matroska
Format version                           : Version 4
File size                                : 2.75 GiB
Duration                                 : 1 h 46 min
Overall bit rate                         : 3 689 kb/s
Movie name                               : Requiescant AKA Kill and Pray [1967] 576p BluRay - HJ
Encoded date                             : UTC 2021-01-21 18:01:04
Writing application                      : mkvmerge v52.0.0 ('Secret For The Mad') 64-bit
Writing library                          : libebml v1.4.1 + libmatroska v1.6.2

Video
ID                                       : 1
Format                                   : AVC
Format/Info                              : Advanced Video Codec
Format profile                           : High@L4.1
Format settings                          : CABAC / 14 Ref Frames
Format settings, CABAC                   : Yes
Format settings, Reference frames        : 14 frames
Codec ID                                 : V_MPEG4/ISO/AVC
Duration                                 : 1 h 46 min
Bit rate                                 : 3 410 kb/s
Width                                    : 1 024 pixels
Height                                   : 552 pixels
Display aspect ratio                     : 1.85:1
Frame rate mode                          : Constant
Frame rate                               : 23.976 (24000/1001) FPS
Color space                              : YUV
Chroma subsampling                       : 4:2:0
Bit depth                                : 8 bits
Scan type                                : Progressive
Bits/(Pixel*Frame)                       : 0.252
Stream size                              : 2.54 GiB (92%)
Writing library                          : x264 core 157 r2935 545de2f
Encoding settings                        : cabac=1 / ref=14 / deblock=1:-3:-3 / analyse=0x3:0x133 / me=umh / subme=10 / psy=1 / psy_rd=1.00:0.00 / mixed_ref=1 / me_range=32 / chroma_me=1 / trellis=2 / 8x8dct=1 / cqm=0 / deadzone=21,11 / fast_pskip=0 / chroma_qp_offset=-2 / threads=12 / lookahead_threads=3 / sliced_threads=0 / nr=0 / decimate=0 / interlaced=0 / bluray_compat=0 / constrained_intra=0 / bframes=16 / b_pyramid=2 / b_adapt=2 / b_bias=0 / direct=3 / weightb=1 / open_gop=0 / weightp=2 / keyint=240 / keyint_min=24 / scenecut=40 / intra_refresh=0 / rc_lookahead=60 / rc=crf / mbtree=0 / crf=19.8 / qcomp=0.60 / qpmin=0 / qpmax=69 / qpstep=4 / vbv_maxrate=62500 / vbv_bufsize=78125 / crf_max=0.0 / nal_hrd=none / filler=0 / ip_ratio=1.40 / pb_ratio=1.30 / aq=2:1.00
Default                                  : Yes
Forced                                   : No
Color range                              : Limited
Color primaries                          : BT.709
Transfer characteristics                 : BT.709
Matrix coefficients                      : BT.709

Audio #1
ID                                       : 2
Format                                   : AAC LC
Format/Info                              : Advanced Audio Codec Low Complexity
Codec ID                                 : A_AAC-2
Duration                                 : 1 h 46 min
Bit rate                                 : 139 kb/s
Channel(s)                               : 1 channel
Channel layout                           : C
Sampling rate                            : 48.0 kHz
Frame rate                               : 46.875 FPS (1024 SPF)
Compression mode                         : Lossy
Stream size                              : 106 MiB (4%)
Language                                 : Italian
Default                                  : Yes
Forced                                   : No

Audio #2
ID                                       : 3
Format                                   : AAC LC
Format/Info                              : Advanced Audio Codec Low Complexity
Codec ID                                 : A_AAC-2
Duration                                 : 1 h 46 min
Bit rate                                 : 137 kb/s
Channel(s)                               : 1 channel
Channel layout                           : C
Sampling rate                            : 48.0 kHz
Frame rate                               : 46.875 FPS (1024 SPF)
Compression mode                         : Lossy
Stream size                              : 104 MiB (4%)
Title                                    : English Dub
Language                                 : English
Default                                  : No
Forced                                   : No

Text #1
ID                                       : 4
Format                                   : UTF-8
Codec ID                                 : S_TEXT/UTF8
Codec ID/Info                            : UTF-8 Plain Text
Duration                                 : 1 h 44 min
Bit rate                                 : 38 b/s
Count of elements                        : 887
Stream size                              : 29.2 KiB (0%)
Language                                 : English
Default                                  : Yes
Forced                                   : No

Text #2
ID                                       : 5
Format                                   : UTF-8
Codec ID                                 : S_TEXT/UTF8
Codec ID/Info                            : UTF-8 Plain Text
Duration                                 : 1 h 44 min
Bit rate                                 : 44 b/s
Count of elements                        : 982
Stream size                              : 33.7 KiB (0%)
Title                                    : Hard of Hearing
Language                                 : English
Default                                  : No
Forced                                   : No

Menu
00:00:00.000                             : :Chapter 1
00:09:04.461                             : :Chapter 2
00:17:45.231                             : :Chapter 3
00:28:18.238                             : :Chapter 4
00:36:56.631                             : :Chapter 5
00:43:42.120                             : :Chapter 6
00:52:41.617                             : :Chapter 7
01:01:11.710                             : :Chapter 8
01:11:02.049                             : :Chapter 9
01:20:15.561                             : :Chapter 10
01:27:50.015                             : :Chapter 11
01:37:43.858                             : :Chapter 12


ed2k linkDESCANSEN EN PAZ ed2k link stats


He sincronizados unos subs en español que encontré en la mula, desconozco traductor:
ed2k linkSUBTÍTULO EN ESPAÑOL ed2k link stats


Entretenida película, la copia es dual italiano e ingles con subtítulos opcionales en inglés.
Última edición por jotarapidup el Lun 01 Feb, 2021 18:06, editado 2 veces en total.

Avatar de Usuario
Spanish Jhonny
Mensajes: 3112
Registrado: Mar 18 Sep, 2012 16:01

Re: Requiescant (Carlo Lizzani, 1967) BDRip VOSI

Mensaje por Spanish Jhonny » Dom 24 Ene, 2021 12:16

Muchas gracias jota ;)

jotarapidup
Mensajes: 203
Registrado: Jue 10 Dic, 2009 01:02

Re: Requiescant (Carlo Lizzani, 1967) BDRip VOSE

Mensaje por jotarapidup » Lun 01 Feb, 2021 18:07

He sincronizado unos subs en español que me hicieron llegar, descnozoco autor pero se ven bastante bien. Agregados a la ficha principal.

Avatar de Usuario
tarkovstalker
Mensajes: 83
Registrado: Dom 11 Abr, 2010 12:23

Re: Requiescant (Carlo Lizzani, 1967) BDRip VOSE

Mensaje por tarkovstalker » Mar 02 Feb, 2021 16:54

Muchas gracias, Jota.Imagen

Responder