Kradetzat na praskovi (Vulo Radev, 1964) DVDRip VOSE

Publica y encuentra enlaces p2p de filmes hasta 1980 en esta sección.
Responder
jotarapidup
Mensajes: 197
Registrado: Jue 10 Dic, 2009 01:02

Kradetzat na praskovi (Vulo Radev, 1964) DVDRip VOSE

Mensaje por jotarapidup » Lun 11 Ene, 2021 04:29


Imagen

EL LADRÓN DE MELOCOTONES

IMDB

Bulgaria, I Guerra Mundial. Un grupo de prisioneros de guerra llega a la ciudad, entre ellos el serbio Ivo Obrenovich. Durante una de sus escapadas del campo, Ivo se cuela en un huerto privado y es pillado in fraganti robando melocotones por la esposa de un Coronel, Lisa. Ivo se enamora al instante de ella y no tardará en volver a intentar verla de nuevo... (FILMAFFINITY)


Imagen

Imagen

Imagen

Imagen

Imagen

Imagen

Imagen

Imagen

Imagen

Imagen

Imagen

Imagen

Código: Seleccionar todo

General
Unique ID                                : 283274777965630956291443457563534732214 (0xD51CBCDC5B21856D520E3131959EABB6)
Complete name                            : C:\Users\Downloads\eMule\Incoming\Kradetzat na praskovi (1964).DVDRip.x265.AAC.English.Spanish.French.German.Bulgarian.Russian.Subtitles-CFC.mkv
Format                                   : Matroska
Format version                           : Version 4
File size                                : 1.27 GiB
Duration                                 : 1 h 20 min
Overall bit rate                         : 2 269 kb/s
Encoded date                             : UTC 2021-01-11 02:54:57
Writing application                      : mkvmerge v50.0.0 ('Awakenings') 32-bit
Writing library                          : libebml v1.4.0 + libmatroska v1.6.2 / Lavf58.29.100

Video
ID                                       : 1
Format                                   : HEVC
Format/Info                              : High Efficiency Video Coding
Format profile                           : Main@L3@Main
Codec ID                                 : V_MPEGH/ISO/HEVC
Duration                                 : 1 h 20 min
Bit rate                                 : 2 101 kb/s
Width                                    : 720 pixels
Height                                   : 576 pixels
Display aspect ratio                     : 4:3
Frame rate mode                          : Constant
Frame rate                               : 25.000 FPS
Standard                                 : PAL
Color space                              : YUV
Chroma subsampling                       : 4:2:0
Bit depth                                : 8 bits
Bits/(Pixel*Frame)                       : 0.203
Stream size                              : 1.18 GiB (93%)
Writing library                          : x265 3.2.1+1-b5c86a64bbbe:[Windows][GCC 9.2.0][64 bit] 8bit+10bit+12bit
Encoding settings                        : cpuid=1049071 / frame-threads=2 / numa-pools=4 / wpp / no-pmode / no-pme / no-psnr / no-ssim / log-level=2 / input-csp=1 / input-res=720x576 / interlace=0 / total-frames=0 / level-idc=0 / high-tier=1 / uhd-bd=0 / ref=4 / no-allow-non-conformance / no-repeat-headers / annexb / no-aud / no-hrd / info / hash=0 / no-temporal-layers / open-gop / min-keyint=25 / keyint=250 / gop-lookahead=0 / bframes=4 / b-adapt=2 / b-pyramid / bframe-bias=0 / rc-lookahead=25 / lookahead-slices=0 / scenecut=40 / radl=0 / no-splice / no-intra-refresh / ctu=64 / min-cu-size=8 / no-rect / no-amp / max-tu-size=32 / tu-inter-depth=1 / tu-intra-depth=1 / limit-tu=0 / rdoq-level=2 / dynamic-rd=0.00 / no-ssim-rd / signhide / no-tskip / nr-intra=0 / nr-inter=0 / no-constrained-intra / no-strong-intra-smoothing / max-merge=3 / limit-refs=3 / limit-modes / me=3 / subme=3 / merange=57 / temporal-mvp / no-hme / weightp / no-weightb / no-analyze-src-pics / deblock=0:0 / sao / no-sao-non-deblock / rd=4 / selective-sao=4 / no-early-skip / rskip / no-fast-intra / no-tskip-fast / no-cu-lossless / no-b-intra / no-splitrd-skip / rdpenalty=0 / psy-rd=2.00 / psy-rdoq=1.00 / no-rd-refine / no-lossless / cbqpoffs=0 / crqpoffs=0 / rc=abr / bitrate=2100 / qcomp=0.60 / qpstep=4 / stats-write=0 / stats-read=2 / cplxblur=20.0 / qblur=0.5 / ipratio=1.40 / pbratio=1.30 / aq-mode=1 / aq-strength=1.00 / cutree / zone-count=0 / no-strict-cbr / qg-size=32 / no-rc-grain / qpmax=69 / qpmin=0 / no-const-vbv / sar=255 / sar-width / : / sar-height=11456:10725 / overscan=0 / videoformat=5 / range=0 / colorprim=5 / transfer=5 / colormatrix=5 / chromaloc=0 / display-window=0 / cll=0,0 / min-luma=0 / max-luma=255 / log2-max-poc-lsb=8 / vui-timing-info / vui-hrd-info / slices=1 / no-opt-qp-pps / no-opt-ref-list-length-pps / no-multi-pass-opt-rps / scenecut-bias=0.05 / no-opt-cu-delta-qp / no-aq-motion / no-hdr / no-hdr-opt / no-dhdr10-opt / no-idr-recovery-sei / analysis-reuse-level=5 / scale-factor=0 / refine-intra=0 / refine-inter=0 / refine-mv=1 / refine-ctu-distortion=0 / no-limit-sao / ctu-info=0 / no-lowpass-dct / refine-analysis-type=0 / copy-pic=1 / max-ausize-factor=1.0 / no-dynamic-refine / no-single-sei / no-hevc-aq / no-svt / no-field / qp-adaptation-range=1.00
Default                                  : Yes
Forced                                   : No
Color range                              : Limited
Color primaries                          : BT.601 PAL
Transfer characteristics                 : BT.470 System B/G
Matrix coefficients                      : BT.470 System B/G

Audio
ID                                       : 2
Format                                   : AAC LC
Format/Info                              : Advanced Audio Codec Low Complexity
Codec ID                                 : A_AAC-2
Duration                                 : 1 h 20 min
Bit rate                                 : 161 kb/s
Channel(s)                               : 2 channels
Channel layout                           : L R
Sampling rate                            : 48.0 kHz
Frame rate                               : 46.875 FPS (1024 SPF)
Compression mode                         : Lossy
Delay relative to video                  : -21 ms
Stream size                              : 92.2 MiB (7%)
Title                                    : Stereo
Language                                 : Bulgarian
Default                                  : Yes
Forced                                   : No

Text #1
ID                                       : 3
Format                                   : VobSub
Muxing mode                              : zlib
Codec ID                                 : S_VOBSUB
Codec ID/Info                            : Picture based subtitle format used on DVDs
Duration                                 : 1 h 16 min
Bit rate                                 : 1 432 b/s
Count of elements                        : 474
Stream size                              : 798 KiB (0%)
Language                                 : English
Default                                  : No
Forced                                   : No

Text #2
ID                                       : 4
Format                                   : VobSub
Muxing mode                              : zlib
Codec ID                                 : S_VOBSUB
Codec ID/Info                            : Picture based subtitle format used on DVDs
Duration                                 : 1 h 15 min
Bit rate                                 : 1 109 b/s
Count of elements                        : 329
Stream size                              : 611 KiB (0%)
Default                                  : No
Forced                                   : No

Text #3
ID                                       : 5
Format                                   : VobSub
Muxing mode                              : zlib
Codec ID                                 : S_VOBSUB
Codec ID/Info                            : Picture based subtitle format used on DVDs
Duration                                 : 1 h 16 min
Bit rate                                 : 1 680 b/s
Count of elements                        : 401
Stream size                              : 936 KiB (0%)
Default                                  : No
Forced                                   : No

Text #4
ID                                       : 6
Format                                   : VobSub
Muxing mode                              : zlib
Codec ID                                 : S_VOBSUB
Codec ID/Info                            : Picture based subtitle format used on DVDs
Duration                                 : 1 h 16 min
Bit rate                                 : 1 279 b/s
Count of elements                        : 384
Stream size                              : 713 KiB (0%)
Default                                  : No
Forced                                   : No

Text #5
ID                                       : 7
Format                                   : VobSub
Muxing mode                              : zlib
Codec ID                                 : S_VOBSUB
Codec ID/Info                            : Picture based subtitle format used on DVDs
Duration                                 : 1 h 16 min
Bit rate                                 : 1 563 b/s
Count of elements                        : 414
Stream size                              : 871 KiB (0%)
Default                                  : No
Forced                                   : No

Text #6
ID                                       : 8
Format                                   : UTF-8
Codec ID                                 : S_TEXT/UTF8
Codec ID/Info                            : UTF-8 Plain Text
Duration                                 : 1 h 18 min
Bit rate                                 : 23 b/s
Count of elements                        : 446
Stream size                              : 13.6 KiB (0%)
Title                                    : Spanish
Language                                 : Spanish
Default                                  : Yes
Forced                                   : No

Menu
00:00:00.000                             : :Chapter 1
00:10:54.080                             : :Chapter 2
00:29:07.200                             : :Chapter 3
00:40:53.760                             : :Chapter 4
00:53:00.480                             : :Chapter 5
01:07:22.880                             : :Chapter 6

ed2k linkEL LADRÓN DE MELOCOTONES ed2k link stats


Una de mis películas favoritas, hice este rip de mejor calidad y se los comparto. El DVD era de buena calidad así que salió algo bastante bien. Le he agregado los excelentes subtítulos en español que hizo en su momento Vozidar.

ostrata
Mensajes: 2285
Registrado: Mié 24 Mar, 2010 17:29

Re: Kradetzat na praskovi (Vulo Radev, 1964) DVDRip VOSE

Mensaje por ostrata » Lun 11 Ene, 2021 05:51

Gracias. :)

Saludos.

Avatar de Usuario
Spanish Jhonny
Mensajes: 3045
Registrado: Mar 18 Sep, 2012 16:01

Re: Kradetzat na praskovi (Vulo Radev, 1964) DVDRip VOSE

Mensaje por Spanish Jhonny » Lun 11 Ene, 2021 09:32

Me apunto yo también.
Muchas gracias jotarapidup :plas: :plas:
Un saludo.

karlitox50
Mensajes: 192
Registrado: Jue 03 Jul, 2003 02:00

Re: Kradetzat na praskovi (Vulo Radev, 1964) DVDRip VOSE

Mensaje por karlitox50 » Jue 14 Ene, 2021 21:02

Siendo tu favorita yo también me apunto, muchas gracias.

Responder