Todos somos necesarios (José Antonio Nieves Conde, 1956) HD 1080p

Publica y encuentra enlaces p2p de filmes hasta 1980 en esta sección.
Responder
jotarapidup
Mensajes: 198
Registrado: Jue 10 Dic, 2009 01:02

Todos somos necesarios (José Antonio Nieves Conde, 1956) HD 1080p

Mensaje por jotarapidup » Dom 10 Ene, 2021 05:59

Imagen

TODOS SOMOS NECESARIOS

IMDB


En 1950, una vez cumplidas sus condenas, tres presos muy diferentes -un médico (Alberto Closas), un funcionario (Ferdinand Anton) y un ladrón (Folco Lulli)- abandonan la cárcel rumbo a sus nuevas vidas. Los tres acuden a la estación de tren para viajar a la ciudad. Mientras esperan en la estación, sueñan con esa nueva etapa que les espera y las esperanzas que albergan de esa nueva vida. Aunque la cruda realidad de enfrentarse a la sociedad es algo que oscurece esta nueva oportunidad. (FILMAFFINITY)


Imagen

Imagen

Imagen

Imagen

Imagen

Imagen

Imagen

Imagen

Código: Seleccionar todo

General
Unique ID : 280063741693097320675709791063618859559 (0xD2B2508CAA65286408FB752A216BB227)
Complete name : Todos.somos.necesarios.1956.1080p.FO.WEB-DL.AAC2.0.H.264-CREATiVE.mkv
Format : Matroska
Format version : Version 4 / Version 2
File size : 3.03 GiB
Duration : 1 h 21 min
Overall bit rate : 5 316 kb/s
Movie name : Todos somos necesarios 1956 1080p FO WEB-DL AAC2.0 H.264-CREATiVE
Encoded date : UTC 2019-02-28 12:38:21
Writing application : mkvmerge v25.0.0 ('Prog Noir') 64-bit
Writing library : libebml v1.3.6 + libmatroska v1.4.9

Video
ID : 1
Format : AVC
Format/Info : Advanced Video Codec
Format profile : High@L4
Format settings : CABAC / 4 Ref Frames
Format settings, CABAC : Yes
Format settings, RefFrames : 4 frames
Codec ID : V_MPEG4/ISO/AVC
Duration : 1 h 21 min
Bit rate : 5 213 kb/s
Width : 1 920 pixels
Height : 1 080 pixels
Display aspect ratio : 16:9
Frame rate mode : Constant
Frame rate : 25.000 FPS
Color space : YUV
Chroma subsampling : 4:2:0
Bit depth : 8 bits
Scan type : Progressive
Bits/(Pixel*Frame) : 0.101
Stream size : 2.97 GiB (98%)
Default : Yes
Forced : No

Audio
ID : 2
Format : AAC
Format/Info : Advanced Audio Codec
Format profile : LC
Codec ID : A_AAC-2
Duration : 1 h 21 min
Bit rate : 101 kb/s
Channel(s) : 2 channels
Channel positions : Front: L R
Sampling rate : 48.0 kHz
Frame rate : 46.875 FPS (1024 SPF)
Compression mode : Lossy
Stream size : 58.7 MiB (2%)
Language : Spanish
Default : Yes
Forced : No

ed2k linkTODOS SOMOS NECESRIOS ed2k link stats

ostrata
Mensajes: 2285
Registrado: Mié 24 Mar, 2010 17:29

Re: Todos somos necesarios (José Antonio Nieves Conde, 1956) HD 1080p VO

Mensaje por ostrata » Dom 10 Ene, 2021 16:40

Gracias. :)

Saludos.

Avatar de Usuario
Spanish Jhonny
Mensajes: 3049
Registrado: Mar 18 Sep, 2012 16:01

Re: Todos somos necesarios (José Antonio Nieves Conde, 1956) HD 1080p VO

Mensaje por Spanish Jhonny » Lun 11 Ene, 2021 09:34

Pincho esta también.
Muchas gracias :sonrisa:

Responder