L' Eredità Ferramonti (Mauro Bolognini, 1976) HD 1080p VOSE

Publica y encuentra enlaces p2p de filmes hasta 1980 en esta sección.
Responder
jotarapidup
Mensajes: 198
Registrado: Jue 10 Dic, 2009 01:02

L' Eredità Ferramonti (Mauro Bolognini, 1976) HD 1080p VOSE

Mensaje por jotarapidup » Sab 09 Ene, 2021 01:25

Imagen

LA HERENCIA FERRAMONTI

IMDB

Roma, 1880. Después de cerrar su panadería, el negocio del que vive toda su familia, Gregorio Ferramonti (Anthony Quinn) comunica a sus hijos Pippo (Gigi Proietti), Mario (Fabio Testi) y Teta (Adriana Asti) que en adelante tendrán que ganarse la vida por sus propios medios. Sin embargo, Irene (Dominique Sanda), la mujer de Pippo, una joven hermosa, calculadora, ambiciosa, utilizará sus dotes de manipulación para adueñarse de la herencia de los Ferramonti. (FILMAFFINITY)

Imagen

Imagen

Imagen

Imagen

Imagen

Imagen

Imagen

Imagen

Imagen

Código: Seleccionar todo

General
Unique ID                                : 5950936363985498441303556810894952080 (0x47A1BD0C0899CA2E38561498A0F4690)
Complete name                            : C:\Users\Downloads\eMule\Incoming\Leredita.Ferramonti.AKA.The.Inheritance.1976.1080p.BluRay.x264-HANDJOB.English.Spanish.Subtitles.mkv
Format                                   : Matroska
Format version                           : Version 4
File size                                : 9.55 GiB
Duration                                 : 1 h 59 min
Overall bit rate                         : 11.4 Mb/s
Movie name                               : L'eredità Ferramonti AKA The Inheritance [1976] 1080p BluRay - HJ
Encoded date                             : UTC 2021-01-08 04:18:08
Writing application                      : mkvmerge v42.0.0 ('Overtime') 64-bit
Writing library                          : libebml v1.3.10 + libmatroska v1.5.2

Video
ID                                       : 1
Format                                   : AVC
Format/Info                              : Advanced Video Codec
Format profile                           : High@L4.1
Format settings                          : CABAC / 4 Ref Frames
Format settings, CABAC                   : Yes
Format settings, Reference frames        : 4 frames
Codec ID                                 : V_MPEG4/ISO/AVC
Duration                                 : 1 h 59 min
Bit rate                                 : 11.0 Mb/s
Width                                    : 1 792 pixels
Height                                   : 1 072 pixels
Display aspect ratio                     : 5:3
Frame rate mode                          : Constant
Frame rate                               : 24.000 FPS
Color space                              : YUV
Chroma subsampling                       : 4:2:0
Bit depth                                : 8 bits
Scan type                                : Progressive
Bits/(Pixel*Frame)                       : 0.238
Stream size                              : 9.17 GiB (96%)
Writing library                          : x264 core 157 r2935 545de2f
Encoding settings                        : cabac=1 / ref=4 / deblock=1:-3:-3 / analyse=0x3:0x133 / me=umh / subme=11 / psy=1 / psy_rd=1.00:0.00 / mixed_ref=1 / me_range=32 / chroma_me=1 / trellis=2 / 8x8dct=1 / cqm=0 / deadzone=21,11 / fast_pskip=0 / chroma_qp_offset=-2 / threads=6 / lookahead_threads=1 / sliced_threads=0 / nr=0 / decimate=0 / interlaced=0 / bluray_compat=0 / constrained_intra=0 / bframes=16 / b_pyramid=2 / b_adapt=2 / b_bias=0 / direct=3 / weightb=1 / open_gop=0 / weightp=2 / keyint=240 / keyint_min=24 / scenecut=40 / intra_refresh=0 / rc_lookahead=60 / rc=crf / mbtree=0 / crf=21.5 / qcomp=0.60 / qpmin=0 / qpmax=69 / qpstep=4 / vbv_maxrate=62500 / vbv_bufsize=78125 / crf_max=0.0 / nal_hrd=none / filler=0 / ip_ratio=1.40 / pb_ratio=1.30 / aq=1:0.85
Default                                  : Yes
Forced                                   : No
Color range                              : Limited
Color primaries                          : BT.709
Transfer characteristics                 : BT.709
Matrix coefficients                      : BT.709

Audio
ID                                       : 2
Format                                   : AC-3
Format/Info                              : Audio Coding 3
Commercial name                          : Dolby Digital
Codec ID                                 : A_AC3
Duration                                 : 1 h 59 min
Bit rate mode                            : Constant
Bit rate                                 : 448 kb/s
Channel(s)                               : 6 channels
Channel layout                           : L R C LFE Ls Rs
Sampling rate                            : 48.0 kHz
Frame rate                               : 31.250 FPS (1536 SPF)
Compression mode                         : Lossy
Stream size                              : 384 MiB (4%)
Language                                 : Italian
Service kind                             : Complete Main
Default                                  : Yes
Forced                                   : No

Text #1
ID                                       : 3
Format                                   : UTF-8
Codec ID                                 : S_TEXT/UTF8
Codec ID/Info                            : UTF-8 Plain Text
Duration                                 : 1 h 55 min
Bit rate                                 : 47 b/s
Count of elements                        : 1310
Stream size                              : 40.5 KiB (0%)
Language                                 : English
Default                                  : Yes
Forced                                   : No

Text #2
ID                                       : 4
Format                                   : PGS
Muxing mode                              : zlib
Codec ID                                 : S_HDMV/PGS
Codec ID/Info                            : Picture based subtitle format used on BDs/HD-DVDs
Duration                                 : 1 h 56 min
Bit rate                                 : 42.0 kb/s
Count of elements                        : 2832
Stream size                              : 35.0 MiB (0%)
Language                                 : Spanish
Default                                  : No
Forced                                   : No

Menu
00:00:00.000                             : :Chapter 1
00:10:32.500                             : :Chapter 2
00:19:44.583                             : :Chapter 3
00:29:57.208                             : :Chapter 4
00:43:08.125                             : :Chapter 5
00:52:35.042                             : :Chapter 6
01:00:58.208                             : :Chapter 7
01:10:31.000                             : :Chapter 8
01:19:03.500                             : :Chapter 9
01:30:20.000                             : :Chapter 10
01:42:54.042                             : :Chapter 11
01:48:50.333                             : :Chapter 12
01:58:05.042                             : :Chapter 13

ed2k linkLA HERENCIA FERRAMONTI ed2k link stats

Subtítulos en inglés y español en el contenedor

Granticidias
Mensajes: 87
Registrado: Sab 21 Ene, 2017 12:29

Re: L' Eredità Ferramonti (Mauro Bolognini, 1976) HD 1080p VOSE

Mensaje por Granticidias » Sab 09 Ene, 2021 14:26

Muchas gracias por estos maravillosos ripeos.

Avatar de Usuario
Hossein Sabzian
Mensajes: 106
Registrado: Lun 02 May, 2011 20:31

Re: L' Eredità Ferramonti (Mauro Bolognini, 1976) HD 1080p VOSE

Mensaje por Hossein Sabzian » Sab 09 Ene, 2021 16:18

Bolognini en alta definición, ya iba siendo hora,
muchísimas gracias.

Avatar de Usuario
Brateh
Amante del Cine
Mensajes: 410
Registrado: Sab 31 Jul, 2010 05:37
Ubicación: Argentina

Re: L' Eredità Ferramonti (Mauro Bolognini, 1976) HD 1080p VOSE

Mensaje por Brateh » Mar 12 Ene, 2021 18:08

¡Muchas gracias por esta maravilla!
:plas: :plas:
Subtítulos en castellano -"neutro o latinoamericano"- corregidos, tomados del ripeo y en formato srt .
Aquí el enlace:
https://www.subdivx.com/X6XNjEyNjExX-l% ... tance.html
Alta Definición es una necesidad... Bienvenida sea!!

Avatar de Usuario
eulsus
Mensajes: 1562
Registrado: Vie 18 May, 2007 10:41
Ubicación: La Palma

Re: L' Eredità Ferramonti (Mauro Bolognini, 1976) HD 1080p VOSE

Mensaje por eulsus » Mar 12 Ene, 2021 21:54

Muchas gracias, jotarapidup y Brateh. :plas: :plas:

Solamente he explorado la época dorada de este director (del 59 al 63), pero casi seguro que este película me gustará a tenor del trío de protagonistas, la calidad del vídeo y los subtítulos planos. :)

Saludos.
Imagen
Antonio García-Trevijano Forte (1927-2018)
"Para que yo sea libre, todos tienen que ser libres"

Abstención activa hasta que haya Libertad Colectiva

Avatar de Usuario
shimoda
Mensajes: 1900
Registrado: Vie 15 Ago, 2003 02:00
Ubicación: En un sueño apócrifo

Re: L' Eredità Ferramonti (Mauro Bolognini, 1976) HD 1080p VOSE

Mensaje por shimoda » Sab 16 Ene, 2021 10:29

Con banda sonora de Morricone :mrgreen:

Avatar de Usuario
paizoco
Mensajes: 2788
Registrado: Vie 21 Nov, 2003 01:00
Ubicación: Far West

Re: L' Eredità Ferramonti (Mauro Bolognini, 1976) HD 1080p VOSE

Mensaje por paizoco » Dom 17 Ene, 2021 00:33

Me apunto, muchas gracias.

Responder