I dolci inganni (Alberto Lattuada, 1960) BDRip VOSE

Publica y encuentra enlaces p2p de filmes hasta 1980 en esta sección.
Responder
jotarapidup
Mensajes: 197
Registrado: Jue 10 Dic, 2009 01:02

I dolci inganni (Alberto Lattuada, 1960) BDRip VOSE

Mensaje por jotarapidup » Lun 04 Ene, 2021 08:02

Imagen

DULCES ENGAÑOS

IMDB

Francesca tiene diecisiete años y está empezando a interesarse por los hombres. Le gusta Enrico, un vecino suyo al que puede ver desde su ventana. Es arquitecto, divorciado y mucho mayor que ella. Un día la invita a comer, pero ella no se atreve a aceptar la invitación. (FILMAFFINITY)
-------------------------------------------------------------
"Lattuada vuelve a explotar el mito erótico del momento, aquí Spaak, en una historia de amor entre una adolescente y un hombre maduro. Entretenido, que no brillante, melodrama de tintes pasionales"



Imagen

Imagen

Imagen

Imagen

Imagen

Imagen

Imagen

Código: Seleccionar todo

General
Unique ID                                : 113819538189332965453266462555247133012 (0x55A0D87ED8932B362965E78C3886C154)
Complete name                            : C:\Users\Downloads\eMule\Incoming\I dolci inganni - (1960).BDRip.x264.FLAC.English.Italian.French.Spanish.Subtitles-KG.mkv
Format                                   : Matroska
Format version                           : Version 4
File size                                : 3.32 GiB
Duration                                 : 1 h 31 min
Overall bit rate mode                    : Variable
Overall bit rate                         : 5 188 kb/s
Encoded date                             : UTC 2021-01-04 06:39:58
Writing application                      : mkvmerge v50.0.0 ('Awakenings') 32-bit
Writing library                          : libebml v1.4.0 + libmatroska v1.6.2

Video
ID                                       : 1
Format                                   : AVC
Format/Info                              : Advanced Video Codec
Format profile                           : High@L4.1
Format settings                          : CABAC / 11 Ref Frames
Format settings, CABAC                   : Yes
Format settings, Reference frames        : 11 frames
Codec ID                                 : V_MPEG4/ISO/AVC
Duration                                 : 1 h 31 min
Bit rate                                 : 4 750 kb/s
Width                                    : 1 024 pixels
Height                                   : 554 pixels
Display aspect ratio                     : 1.85:1
Frame rate mode                          : Constant
Frame rate                               : 24.000 FPS
Color space                              : YUV
Chroma subsampling                       : 4:2:0
Bit depth                                : 8 bits
Scan type                                : Progressive
Bits/(Pixel*Frame)                       : 0.349
Stream size                              : 3.03 GiB (91%)
Writing library                          : x264 core 157 r2969 d4099dd
Encoding settings                        : cabac=1 / ref=11 / deblock=1:-4:-3 / analyse=0x3:0x113 / me=umh / subme=11 / psy=1 / psy_rd=1.05:0.00 / mixed_ref=1 / me_range=28 / chroma_me=0 / trellis=2 / 8x8dct=1 / cqm=0 / deadzone=21,11 / fast_pskip=0 / chroma_qp_offset=-2 / threads=9 / lookahead_threads=1 / sliced_threads=0 / nr=0 / decimate=0 / interlaced=0 / bluray_compat=0 / constrained_intra=0 / bframes=7 / b_pyramid=2 / b_adapt=2 / b_bias=0 / direct=1 / weightb=1 / open_gop=0 / weightp=2 / keyint=240 / keyint_min=24 / scenecut=40 / intra_refresh=0 / rc_lookahead=60 / rc=2pass / mbtree=0 / bitrate=4750 / ratetol=2.5 / qcomp=0.78 / qpmin=0 / qpmax=69 / qpstep=4 / cplxblur=20.0 / qblur=0.5 / vbv_maxrate=50000 / vbv_bufsize=62500 / nal_hrd=none / filler=0 / ip_ratio=1.30 / pb_ratio=1.20 / aq=1:0.67
Default                                  : Yes
Forced                                   : No

Audio #1
ID                                       : 2
Format                                   : FLAC
Format/Info                              : Free Lossless Audio Codec
Codec ID                                 : A_FLAC
Duration                                 : 1 h 31 min
Bit rate mode                            : Variable
Bit rate                                 : 246 kb/s
Channel(s)                               : 2 channels
Channel layout                           : L R
Sampling rate                            : 48.0 kHz
Frame rate                               : 11.719 FPS (4096 SPF)
Bit depth                                : 16 bits
Compression mode                         : Lossless
Stream size                              : 161 MiB (5%)
Writing library                          : libFLAC 1.3.0 (UTC 2013-05-26)
Language                                 : Italian
Default                                  : Yes
Forced                                   : No

Audio #2
ID                                       : 3
Format                                   : AC-3
Format/Info                              : Audio Coding 3
Commercial name                          : Dolby Digital
Codec ID                                 : A_AC3
Duration                                 : 1 h 31 min
Bit rate mode                            : Constant
Bit rate                                 : 192 kb/s
Channel(s)                               : 2 channels
Channel layout                           : L R
Sampling rate                            : 48.0 kHz
Frame rate                               : 31.250 FPS (1536 SPF)
Compression mode                         : Lossy
Stream size                              : 126 MiB (4%)
Language                                 : French
Service kind                             : Complete Main
Default                                  : No
Forced                                   : No

Text #1
ID                                       : 4
Format                                   : PGS
Muxing mode                              : zlib
Codec ID                                 : S_HDMV/PGS
Codec ID/Info                            : Picture based subtitle format used on BDs/HD-DVDs
Duration                                 : 1 h 27 min
Bit rate                                 : 6 107 b/s
Count of elements                        : 1484
Stream size                              : 3.81 MiB (0%)
Title                                    : .sup
Language                                 : English
Default                                  : Yes
Forced                                   : No

Text #2
ID                                       : 5
Format                                   : PGS
Muxing mode                              : zlib
Codec ID                                 : S_HDMV/PGS
Codec ID/Info                            : Picture based subtitle format used on BDs/HD-DVDs
Duration                                 : 1 h 28 min
Bit rate                                 : 15.3 kb/s
Count of elements                        : 1812
Stream size                              : 9.73 MiB (0%)
Title                                    : .sup (Bluray original)
Language                                 : French
Default                                  : No
Forced                                   : No

Text #3
ID                                       : 6
Format                                   : PGS
Muxing mode                              : zlib
Codec ID                                 : S_HDMV/PGS
Codec ID/Info                            : Picture based subtitle format used on BDs/HD-DVDs
Duration                                 : 1 h 23 min
Bit rate                                 : 5 035 b/s
Count of elements                        : 1252
Stream size                              : 3.00 MiB (0%)
Title                                    : .sup
Language                                 : Italian
Default                                  : No
Forced                                   : No

Text #4
ID                                       : 7
Format                                   : UTF-8
Codec ID                                 : S_TEXT/UTF8
Codec ID/Info                            : UTF-8 Plain Text
Duration                                 : 1 h 27 min
Bit rate                                 : 50 b/s
Count of elements                        : 742
Stream size                              : 32.2 KiB (0%)
Title                                    : .srt
Language                                 : English
Default                                  : No
Forced                                   : No

Text #5
ID                                       : 8
Format                                   : UTF-8
Codec ID                                 : S_TEXT/UTF8
Codec ID/Info                            : UTF-8 Plain Text
Duration                                 : 1 h 23 min
Bit rate                                 : 41 b/s
Count of elements                        : 626
Stream size                              : 25.2 KiB (0%)
Title                                    : .srt
Language                                 : Italian
Default                                  : No
Forced                                   : No

Text #6
ID                                       : 9
Format                                   : UTF-8
Codec ID                                 : S_TEXT/UTF8
Codec ID/Info                            : UTF-8 Plain Text
Duration                                 : 1 h 27 min
Bit rate                                 : 52 b/s
Count of elements                        : 635
Stream size                              : 33.8 KiB (0%)
Title                                    : spanish
Language                                 : Spanish
Default                                  : No
Forced                                   : No

Menu
00:00:00.000                             : : Des rêves au réveil / From dreams to awakening
00:08:59.000                             : : Une visite matinale / A morning visit
00:20:51.000                             : : Adolescentes / Teenage girls
00:30:25.000                             : : Grand, élégant, yeux noirs / Tall, elegant, black eyes
00:36:55.000                             : : Courses et tensions / Tensions
00:54:07.000                             : : À tombeau ouvert / At breakneck speed
01:04:13.000                             : : Frascati
01:12:04.000                             : : Enfin seuls... / Alone at last...
01:26:40.000                             : : Vraiment seule / Really alone

ed2k linkDULCES ENGAÑOS ed2k link stats

BDRip de JM2L para KG. La copia lleva subtítulos en francés, inglés, italiano y español. Estos últimos son los que tomé de subdivx y sincronicé y agregué a esta copia.

Avatar de Usuario
janca
Mensajes: 2204
Registrado: Dom 20 Dic, 2009 09:31

Re: I dolci inganni (Alberto Lattuada, 1960) HD VOSE

Mensaje por janca » Lun 04 Ene, 2021 08:17

Muchas gracias Jota

Avatar de Usuario
mortimerbrewster
Mensajes: 2017
Registrado: Mar 13 Jul, 2004 02:00
Ubicación: madrid (leganes)

Re: I dolci inganni (Alberto Lattuada, 1960) BDRip VOSE

Mensaje por mortimerbrewster » Mié 06 Ene, 2021 20:01

Mapunto gracias Jota
Alta Definición es una necesidad, no un lujo.

Avatar de Usuario
oestevez
Mensajes: 846
Registrado: Vie 18 May, 2007 13:01
Ubicación: Argentina

Re: I dolci inganni (Alberto Lattuada, 1960) BDRip VOSE

Mensaje por oestevez » Vie 08 Ene, 2021 15:35

Muchas gracias, renovaremos copia.

Responder