I basilischi (Lina Wertmüller, 1963) HD 1080p VOSE

Publica y encuentra enlaces p2p de filmes hasta 1980 en esta sección.
Responder
jotarapidup
Mensajes: 198
Registrado: Jue 10 Dic, 2009 01:02

I basilischi (Lina Wertmüller, 1963) HD 1080p VOSE

Mensaje por jotarapidup » Dom 03 Ene, 2021 04:31

Imagen

LOS ZÁNGANOS

IMDB

Palazzo San Gervasio, un pequeño pueblo de la Lucania, es el marco de este retrato extraordinario y realista de la pequeña provincia del sur de Italia a los principios de los años 60. Lina Wertmuller, a su debut cinematografico nos cuenta la indolencia de la provincia italiana a través de sus personajes que consumen los días entre una charla en el bar y un paseo para el curso. Describe la modorra, lenta y aburrida de la sociedad en la que viven sus personajes, que no tienen esperanzas de crecimiento y que ni siquiera buscan alternativas a un mundo mejor, menos sexista, menos ignorante y con ganas de rescate. Una trama pasoliniana con banda sonora de Ennio Morricone. (FILMAFFINITY)


Imagen

Imagen

Imagen

Imagen

Imagen

Imagen

Imagen

Imagen

Código: Seleccionar todo

eneral
Unique ID                                : 100134773032152720856080068206506606703 (0x4B55417B2C027BE8AA63FD59BF01006F)
Complete name                            : C:\Users\Downloads\eMule\Incoming\I basilischi (1963).WEBRip.x264.AAC.1080p.RESTORED.English.French.Spanish.Portuguese.German.Turkish.Subtitles.mkv
Format                                   : Matroska
Format version                           : Version 4
File size                                : 3.46 GiB
Duration                                 : 1 h 22 min
Overall bit rate                         : 5 982 kb/s
Movie name                               : I basilischi [1963]
Encoded date                             : UTC 2021-01-02 18:20:16
Writing application                      : mkvmerge v35.0.0 ('All The Love In The World') 64-bit
Writing library                          : libebml v1.3.9 + libmatroska v1.5.2

Video
ID                                       : 1
Format                                   : AVC
Format/Info                              : Advanced Video Codec
Format profile                           : High@L4
Format settings                          : CABAC / 4 Ref Frames
Format settings, CABAC                   : Yes
Format settings, Reference frames        : 4 frames
Codec ID                                 : V_MPEG4/ISO/AVC
Duration                                 : 1 h 22 min
Bit rate                                 : 5 872 kb/s
Width                                    : 1 920 pixels
Height                                   : 1 080 pixels
Display aspect ratio                     : 16:9
Frame rate mode                          : Constant
Frame rate                               : 24.000 FPS
Color space                              : YUV
Chroma subsampling                       : 4:2:0
Bit depth                                : 8 bits
Scan type                                : Progressive
Bits/(Pixel*Frame)                       : 0.118
Stream size                              : 3.38 GiB (98%)
Writing library                          : x264 core 155 r2917 0a84d98
Encoding settings                        : cabac=1 / ref=3 / deblock=1:-1:-1 / analyse=0x3:0x113 / me=hex / subme=8 / psy=1 / psy_rd=1.00:0.15 / mixed_ref=1 / me_range=16 / chroma_me=1 / trellis=2 / 8x8dct=1 / cqm=0 / deadzone=21,11 / fast_pskip=1 / chroma_qp_offset=-3 / threads=24 / lookahead_threads=4 / sliced_threads=0 / nr=0 / decimate=1 / interlaced=0 / bluray_compat=0 / constrained_intra=0 / bframes=5 / b_pyramid=2 / b_adapt=1 / b_bias=0 / direct=3 / weightb=1 / open_gop=0 / weightp=2 / keyint=48 / keyint_min=25 / scenecut=0 / intra_refresh=0 / rc_lookahead=50 / rc=abr / mbtree=1 / bitrate=5872 / ratetol=1.0 / qcomp=0.60 / qpmin=0 / qpmax=69 / qpstep=4 / vbv_maxrate=9000 / vbv_bufsize=27000 / nal_hrd=none / filler=0 / ip_ratio=1.40 / aq=1:1.00
Default                                  : Yes
Forced                                   : No

Audio
ID                                       : 2
Format                                   : AAC LC
Format/Info                              : Advanced Audio Codec Low Complexity
Codec ID                                 : A_AAC-2
Duration                                 : 1 h 22 min
Bit rate                                 : 127 kb/s
Channel(s)                               : 2 channels
Channel layout                           : L R
Sampling rate                            : 48.0 kHz
Frame rate                               : 46.875 FPS (1024 SPF)
Compression mode                         : Lossy
Stream size                              : 75.2 MiB (2%)
Language                                 : Italian
Default                                  : Yes
Forced                                   : No

Text #1
ID                                       : 3
Format                                   : UTF-8
Codec ID                                 : S_TEXT/UTF8
Codec ID/Info                            : UTF-8 Plain Text
Duration                                 : 1 h 21 min
Bit rate                                 : 44 b/s
Count of elements                        : 842
Stream size                              : 26.4 KiB (0%)
Language                                 : English
Default                                  : Yes
Forced                                   : No

Text #2
ID                                       : 4
Format                                   : UTF-8
Codec ID                                 : S_TEXT/UTF8
Codec ID/Info                            : UTF-8 Plain Text
Duration                                 : 1 h 17 min
Bit rate                                 : 58 b/s
Count of elements                        : 843
Stream size                              : 33.0 KiB (0%)
Language                                 : German
Default                                  : No
Forced                                   : No

Text #3
ID                                       : 5
Format                                   : UTF-8
Codec ID                                 : S_TEXT/UTF8
Codec ID/Info                            : UTF-8 Plain Text
Duration                                 : 1 h 21 min
Bit rate                                 : 70 b/s
Count of elements                        : 1005
Stream size                              : 42.0 KiB (0%)
Language                                 : French
Default                                  : No
Forced                                   : No

Text #4
ID                                       : 6
Format                                   : UTF-8
Codec ID                                 : S_TEXT/UTF8
Codec ID/Info                            : UTF-8 Plain Text
Duration                                 : 1 h 17 min
Bit rate                                 : 49 b/s
Count of elements                        : 841
Stream size                              : 28.0 KiB (0%)
Language                                 : Portuguese
Default                                  : No
Forced                                   : No

Text #5
ID                                       : 7
Format                                   : UTF-8
Codec ID                                 : S_TEXT/UTF8
Codec ID/Info                            : UTF-8 Plain Text
Duration                                 : 1 h 21 min
Bit rate                                 : 45 b/s
Count of elements                        : 841
Stream size                              : 27.2 KiB (0%)
Language                                 : Spanish
Default                                  : No
Forced                                   : No

Text #6
ID                                       : 8
Format                                   : UTF-8
Codec ID                                 : S_TEXT/UTF8
Codec ID/Info                            : UTF-8 Plain Text
Duration                                 : 1 h 17 min
Bit rate                                 : 45 b/s
Count of elements                        : 840
Stream size                              : 25.5 KiB (0%)
Language                                 : Turkish
Default                                  : No
Forced                                   : No

ed2k linkLOS ZÁNGANOS ed2k link stats

Copia restaurada. Lleva subtítulos en español y varios idiomas.

Avatar de Usuario
mortimerbrewster
Mensajes: 2017
Registrado: Mar 13 Jul, 2004 02:00
Ubicación: madrid (leganes)

Re: I basilischi (Lina Wertmüller, 1963) HD 1080p VOSE

Mensaje por mortimerbrewster » Dom 03 Ene, 2021 11:04

Que buena pinta, gracias jotarapidup :plas:
Alta Definición es una necesidad, no un lujo.

Avatar de Usuario
hector Glauco
Mensajes: 555
Registrado: Lun 10 Ago, 2015 14:13
Ubicación: En el Tarragonés y FDL2

Re: I basilischi (Lina Wertmüller, 1963) HD 1080p VOSE

Mensaje por hector Glauco » Dom 03 Ene, 2021 11:21

Interesantísimo aporte que no me lo pierdo. Merci jota.

ostrata
Mensajes: 2285
Registrado: Mié 24 Mar, 2010 17:29

Re: I basilischi (Lina Wertmüller, 1963) HD 1080p VOSE

Mensaje por ostrata » Dom 03 Ene, 2021 13:04

Gracias. :)

Saludos.

Klinodia
Mensajes: 21
Registrado: Sab 10 Jun, 2006 20:41

Re: I basilischi (Lina Wertmüller, 1963) HD 1080p VOSE

Mensaje por Klinodia » Dom 03 Ene, 2021 14:50

:plas: :plas: ¡¡¡Muchas gracias!!! :plas: :plas:

Avatar de Usuario
Jolmart
Mensajes: 715
Registrado: Vie 03 Abr, 2015 14:02

Re: I basilischi (Lina Wertmüller, 1963) HD 1080p VOSE

Mensaje por Jolmart » Dom 03 Ene, 2021 20:40

:) Muchas Gracias. :)
" De USA importamos todo, hasta las mentiras ".

Avatar de Usuario
Brateh
Amante del Cine
Mensajes: 410
Registrado: Sab 31 Jul, 2010 05:37
Ubicación: Argentina

Re: I basilischi (Lina Wertmüller, 1963) HD 1080p VOSE

Mensaje por Brateh » Mar 05 Ene, 2021 16:50

Muchas gracias!!
:plas: :plas: :plas:
Alta Definición es una necesidad... Bienvenida sea!!

Avatar de Usuario
oestevez
Mensajes: 846
Registrado: Vie 18 May, 2007 13:01
Ubicación: Argentina

Re: I basilischi (Lina Wertmüller, 1963) HD 1080p VOSE

Mensaje por oestevez » Vie 08 Ene, 2021 15:30

Muchas gracias.

Responder