No Way Out (Joseph L. Mankiewicz, 1950) HD 1080p Dual SE

Publica y encuentra enlaces p2p de filmes hasta 1980 en esta sección.
Responder
Avatar de Usuario
baldomp
Mensajes: 402
Registrado: Mar 15 Ago, 2017 12:55

No Way Out (Joseph L. Mankiewicz, 1950) HD 1080p Dual SE

Mensaje por baldomp » Dom 27 Dic, 2020 18:11


Un rayo de luz (1950)
No way out

Imagen
Imagen
Datos
  • Título original: No way out
  • Año: 1950
  • Duración: 106min
  • País: USA
  • Director: Joseph L. Mankiewicz
  • Guión: Joseph L. Mankiewicz, Lesser Samuels
  • Música: Alfred Newman
  • Reparto:
    • Richard Widmark
    • Sideney Poitier
    • Linda Darnell
    • Stephen McNally
    • Ruby Dee
  • Productora: 20th Century Fox
  • datos técnicos:
    • Formato: 35mm
    • Optica: Spherical
    • Color: B/N
    • Audio Mono (Western Electric Recording)
    • AR: 1.37:1

Sinopsis.
Tras atracar una gasolinera, dos criminales, heridos en el tiroteo, son atendidos por el doctor Brooks, el único médico negro del hospital de la ciudad. Cuando uno de ellos muere, el otro acusa al médico de haberlo matado y provoca una revuelta racista para vengarse de él. (FILMAFFINITY)
(De espinoff)

Sidney Poitier, que prácticamente debutaba (y de qué forma) en el cine con esta película, encarna al joven médico y Richard Widmark al paciente que le acusa de asesinato. Poitier está estupendo como el protagonista principal de la historia, mientras que Widmark interpreta al personaje secundario más relevante, realizando un trabajo brillante. Los dos sostienen la película, tanto cuando comparten la pantalla, protagonizando tensos momentos, como por separado. Una película que no resulta tan poderosa como cabía esperar, teniendo en cuenta que está dirigida por Joseph L. Mankiewicz, a partir de un guión nominado al Oscar, escrito por Lesser Samuels y por el propio Mankiewicz.

Le falta a la película, en general, mayor realismo y mayor intensidad. Falta esa sensación de dramatismo que hace que estés pegado a la historia. Sobran diálogos, muchos monólogos. Y a excepción de los dos mencionados, el resto de actores resultan poco convincentes.
...

Desde luego, el personaje que interpreta Richard Widmark es un auténtico animal. El actor vuelve a ofrecer un gran trabajo interpretando a un villano.... El guión no deja espacio alguno para la imaginación y aunque no lo necesitemos se nos explica el origen de ese odio, quizá para hacerlo más humano, quizá para que no nos tranquilicemos buscando culpables concretos.

Elegante y con escenas de gran fuerza, 'Un Rayo de Luz' es algo más que un drama sobre la estupidez del racismo. Sin embargo, la artificiosidad de algunas interpretaciones, el cansino intento de hacer cambiar de opinión al racista, cuando es evidente que no hay forma de lograrlo, y un desenlace previsible disminuyen la contundencia del conjunto. A pesar de esto, aunque sólo sea por el excelente trabajo de Poitier y Widmark, una película muy recomendable.

La fuente.
Vídeo: El video es del stream "no.way.out.1950.1080p.bluray.x264-usury" obtenido vía RARBG. Este ripper se molestó en montar una versión 720p y esta, que no codificó según criterio de calidad (CRF) sino de tamaño (alrededor de 12Mb/s), lo que puede ser suficiente (cada cual tiene su criterio) teniendo en cuenta que es B/N, que tiene un aspect ratio de 1.37 y que no tiene escenas de gran movimiento.

Audio:
  • Inglés: AAC procedente del FLAC del montaje anterior.
  • Castellano: de DVD (del ripeo que conservaba, no recuerdo el origen). "Estirado" (conservando "pich") de 25 a 23.976 y "recolocado" (levemente).
Subtítulos:
[*]Inglés (1 y 2): subtítulos/subtítulos SDH del matroska origen.
[*]Castellano: Opensubtitles (25->23fps) .

Como curiosidad, tenemos ("sólo") a un Duke Ellinton no acreditado en el Score...(aunque se deja oir levemente...)
Spoiler: mostrar

Don't Get Around Much Anymore
(uncredited)
Music by Duke Ellington
Lyrics by Bob Russell

Sophisticated Lady
(uncredited)
Music by Duke Ellington
Lyrics by Mitchell Parish and Irving Mills

In a Sentimental Mood
(uncredited)
Music by Duke Ellington
Lyrics by Mann Curtis
Performed by Eddie Miller

Tiger Rag
(uncredited)
Written by Nick LaRocca, Edwin B. Edwards, Henry Ragas, Tony Sbarbaro, and Larry Shields (aka The Original Dixieland Jazz Band)



Imagen
Spoiler: mostrar

Imagen


Imagen




Stream

Código: Seleccionar todo

Format                                   : Matroska
Format version                           : Version 4
File size                                : 9.57 GiB
Duration                                 : 1 h 46 min
Overall bit rate                         : 12.8 Mb/s
Encoded date                             : UTC 2020-12-26 17:58:14
Writing application                      : mkvmerge v34.0.0 ('Sight and Seen') 64-bit
Writing library                          : libebml v1.3.7 + libmatroska v1.5.0
Cover                                    : Yes
Attachments                              : cover.jpg

Video
ID                                       : 1
Format                                   : AVC
Format/Info                              : Advanced Video Codec
Format profile                           : High@L4.1
Format settings                          : CABAC / 4 Ref Frames
Format settings, CABAC                   : Yes
Format settings, Reference frames        : 4 frames
Codec ID                                 : V_MPEG4/ISO/AVC
Duration                                 : 1 h 46 min
Bit rate                                 : 12.6 Mb/s
Width                                    : 1 440 pixels
Height                                   : 1 080 pixels
Display aspect ratio                     : 4:3
Frame rate mode                          : Constant
Frame rate                               : 23.976 (24000/1001) FPS
Color space                              : YUV
Chroma subsampling                       : 4:2:0
Bit depth                                : 8 bits
Scan type                                : Progressive
Bits/(Pixel*Frame)                       : 0.337
Stream size                              : 9.37 GiB (98%)
Title                                    : no way out (Mankiewicz, 1950) baldomp
Writing library                          : x264 core 155 r2901 7d0ff22
Encoding settings                        : cabac=1 / ref=4 / deblock=1:-3:-3 / analyse=0x3:0x133 / me=umh / subme=9 / psy=1 / psy_rd=1.00:0.00 / mixed_ref=1 / me_range=16 / chroma_me=1 / trellis=2 / 8x8dct=1 / cqm=0 / deadzone=21,11 / fast_pskip=0 / chroma_qp_offset=-2 / threads=34 / lookahead_threads=2 / sliced_threads=0 / nr=0 / decimate=1 / interlaced=0 / bluray_compat=0 / constrained_intra=0 / bframes=3 / b_pyramid=2 / b_adapt=1 / b_bias=0 / direct=3 / weightb=1 / open_gop=0 / weightp=2 / keyint=240 / keyint_min=24 / scenecut=40 / intra_refresh=0 / rc_lookahead=50 / rc=2pass / mbtree=1 / bitrate=12584 / ratetol=1.0 / qcomp=0.60 / qpmin=0 / qpmax=69 / qpstep=4 / cplxblur=20.0 / qblur=0.5 / ip_ratio=1.40 / aq=1:1.00
Default                                  : Yes
Forced                                   : No

Audio #1
ID                                       : 2
Format                                   : AAC LC
Format/Info                              : Advanced Audio Codec Low Complexity
Codec ID                                 : A_AAC-2
Duration                                 : 1 h 46 min
Bit rate                                 : 110 kb/s
Channel(s)                               : 1 channel
Channel layout                           : C
Sampling rate                            : 44.1 kHz
Frame rate                               : 43.066 FPS (1024 SPF)
Compression mode                         : Lossy
Stream size                              : 84.1 MiB (1%)
Title                                    : Spanish
Language                                 : Spanish
Default                                  : Yes
Forced                                   : Yes

Audio #2
ID                                       : 3
Format                                   : AAC LC
Format/Info                              : Advanced Audio Codec Low Complexity
Codec ID                                 : A_AAC-2
Duration                                 : 1 h 46 min
Bit rate                                 : 144 kb/s
Channel(s)                               : 1 channel
Channel layout                           : C
Sampling rate                            : 48.0 kHz
Frame rate                               : 46.875 FPS (1024 SPF)
Compression mode                         : Lossy
Stream size                              : 111 MiB (1%)
Title                                    : English
Language                                 : English
Default                                  : No
Forced                                   : No

Text #1
ID                                       : 4
Format                                   : UTF-8
Codec ID                                 : S_TEXT/UTF8
Codec ID/Info                            : UTF-8 Plain Text
Duration                                 : 1 h 45 min
Bit rate                                 : 79 b/s
Count of elements                        : 1418
Stream size                              : 61.5 KiB (0%)
Title                                    : English
Language                                 : English
Default                                  : No
Forced                                   : No

Text #2
ID                                       : 5
Format                                   : UTF-8
Codec ID                                 : S_TEXT/UTF8
Codec ID/Info                            : UTF-8 Plain Text
Duration                                 : 1 h 45 min
Bit rate                                 : 84 b/s
Count of elements                        : 1512
Stream size                              : 64.9 KiB (0%)
Title                                    : English SDH
Language                                 : English
Default                                  : No
Forced                                   : No

Text #3
ID                                       : 6
Format                                   : UTF-8
Codec ID                                 : S_TEXT/UTF8
Codec ID/Info                            : UTF-8 Plain Text
Duration                                 : 1 h 45 min
Bit rate                                 : 63 b/s
Count of elements                        : 1082
Stream size                              : 49.0 KiB (0%)
Title                                    : Spanish
Language                                 : Spanish
Default                                  : No
Forced                                   : No

Menu
00:00:00.000                             : en:00:00:00.000
00:14:34.707                             : en:00:14:34.707
00:29:25.514                             : en:00:29:25.514
00:42:36.137                             : en:00:42:36.137
00:55:52.140                             : en:00:55:52.140
01:09:43.846                             : en:01:09:43.846
01:25:01.179                             : en:01:25:01.179
01:38:36.452                             : en:01:38:36.452
Capturas.
Imagen

Imagen

Imagen

Imagen

Imagen

El Enlace.

ed2k linkno way out.un rayo de luz (Mankiewicz 1950) BRrip 1080p dual (Spa-Eng) subs (Spa-Eng).mkv ed2k link stats



Gracias.
De nuevo, muchas gracias a quienes comparten, difunden y posibilitan que el CINE (así, en mayúsculas) llegue a todos.


Avatar de Usuario
Dardo
Arrow Thrower Clown
Mensajes: 16733
Registrado: Dom 19 Oct, 2003 02:00
Ubicación: Entre Encinas y Dolomías

Re: No Way Out (Joseph L. Mankiewicz, 1950) HD 1080p Dual SE

Mensaje por Dardo » Dom 27 Dic, 2020 20:33

Estupendo Baldomp!!

Los ripeos HD van en hilos independientes a los DVDRip de ahí que te lo saco fuera y además se ve mejor así solito.

:wink:

Avatar de Usuario
baldomp
Mensajes: 402
Registrado: Mar 15 Ago, 2017 12:55

Re: No Way Out (Joseph L. Mankiewicz, 1950) HD 1080p Dual SE

Mensaje por baldomp » Dom 27 Dic, 2020 20:45

:? ¡Cierto es! (cosa del domingo :mrgreen: )
¡Salu2!

Avatar de Usuario
miguel_HammerFilms
Mensajes: 1296
Registrado: Vie 18 May, 2007 11:23

Re: No Way Out (Joseph L. Mankiewicz, 1950) HD 1080p Dual SE

Mensaje por miguel_HammerFilms » Dom 27 Dic, 2020 21:23

Me la llevo, muchas gracias Baldo :D
Imagen

Avatar de Usuario
paizoco
Mensajes: 2787
Registrado: Vie 21 Nov, 2003 01:00
Ubicación: Far West

Re: No Way Out (Joseph L. Mankiewicz, 1950) HD 1080p Dual SE

Mensaje por paizoco » Dom 27 Dic, 2020 21:36

Me apunto, muchas gracias.

joramor
Mensajes: 1678
Registrado: Vie 05 Nov, 2010 19:55

Re: No Way Out (Joseph L. Mankiewicz, 1950) HD 1080p Dual SE

Mensaje por joramor » Dom 27 Dic, 2020 22:49

Muchas gracias Baldomp. Salu2.

torresmostoles
Pasion por los clasicos!!
Mensajes: 180
Registrado: Dom 25 Mar, 2018 18:55
Ubicación: madrid sur

Re: No Way Out (Joseph L. Mankiewicz, 1950) HD 1080p Dual SE

Mensaje por torresmostoles » Lun 28 Dic, 2020 15:46

BALDOMP Aqui solo nos traes alegrias que lo sepas y mira que este año ha sido para olvidar en muchos aspectos pero en el foro estas que te sales jajaja (:-) un abrazo me lio ya con la mula :mrgreen: :mrgreen:

Avatar de Usuario
salonilla
Todos esos recuerdos se perderán
Mensajes: 16
Registrado: Sab 09 Ene, 2010 08:18

Re: No Way Out (Joseph L. Mankiewicz, 1950) HD 1080p Dual SE

Mensaje por salonilla » Lun 28 Dic, 2020 16:04

Muchas gracias Baldo :)

Avatar de Usuario
baldomp
Mensajes: 402
Registrado: Mar 15 Ago, 2017 12:55

Re: No Way Out (Joseph L. Mankiewicz, 1950) HD 1080p Dual SE

Mensaje por baldomp » Mar 29 Dic, 2020 08:47

torresmostoles escribió:
Lun 28 Dic, 2020 15:46
BALDOMP Aqui solo nos traes alegrias que lo sepas y mira que este año ha sido para olvidar en muchos aspectos pero en el foro estas que te sales jajaja (:-) un abrazo me lio ya con la mula :mrgreen: :mrgreen:
Me alegra. Si al menos durante 106 min (en este caso) os olvidais de la mie... que ha sido este año, pues... p'alante :D

Avatar de Usuario
janca
Mensajes: 2204
Registrado: Dom 20 Dic, 2009 09:31

Re: No Way Out (Joseph L. Mankiewicz, 1950) HD 1080p Dual SE

Mensaje por janca » Mar 29 Dic, 2020 09:02

Muchas gracias Baldomp

Antígono
Mensajes: 557
Registrado: Vie 01 Mar, 2013 18:59

Re: No Way Out (Joseph L. Mankiewicz, 1950) HD 1080p Dual SE

Mensaje por Antígono » Mié 30 Dic, 2020 14:56

Muchas gracias Baldomp, la película tiene toda la apariencia de ser más que interesante. Jugando con el título nacional, Un rayo de luz, seguro que no ha sido coincidencia que la hayas elegido para publicar cuando estamos a punto de despedir un 2020 de tan funesto recuerdo.

El ripeador o grupo USURY tiene una línea de elección de títulos que encaja bastante bien con los gustos divxclasiqueros. Igual te sirve para futuros montajes ahorrándote el trabajo de codificar porque además últimamente estos grupos de la escena pública que se pueden encontrar en páginas de torrent como rarbg no lo hacen mal del todo. Aunque bueno, esto también se podría matizar en algunos parámetros en los que a veces se exceden. Pero no es el caso del vídeo que nos ocupa donde han utilizado valores más normales.

Saludos :plas:

Avatar de Usuario
WalterBurns
Mensajes: 1194
Registrado: Dom 11 Oct, 2015 15:08

Re: No Way Out (Joseph L. Mankiewicz, 1950) HD 1080p Dual SE

Mensaje por WalterBurns » Dom 03 Ene, 2021 20:29

Gracias por compartirla.

Avatar de Usuario
drogo
Mensajes: 97
Registrado: Sab 05 Jun, 2004 02:00

Re: No Way Out (Joseph L. Mankiewicz, 1950) HD 1080p Dual SE

Mensaje por drogo » Vie 08 Ene, 2021 15:27

muchas gracias

saludos

Responder