Red Ball Express (Budd Boetticher, 1952) HD 720p VOSE

Publica y encuentra enlaces p2p de filmes hasta 1980 en esta sección.
Responder
Avatar de Usuario
DMMD
Mensajes: 1757
Registrado: Lun 27 Feb, 2012 14:16

Red Ball Express (Budd Boetticher, 1952) HD 720p VOSE

Mensaje por DMMD » Sab 19 Dic, 2020 13:27

Imagen

Imagen


Hermanos ante el peligro



Título original Red Ball Express
Año 1952
Duración 83 min.
País Imagen
Dirección Budd Boetticher
Guion John Michael Hayes (Historia: William Grady Jr, Marcy Klauber)
Música Milton Rosen, Frank Skinner
Fotografía Maury Gertsman (B&W)
RepartoJeff Chandler, Alex Nicol, Charles Drake, Judith Braun, Sidney Poitier, Jacqueline Duval, Bubber Johnson, Hugh O´Brian, Jack Warden
Productora Universal International Pictures (UI)
Género Bélico. Drama | II Guerra Mundial. Racismo
Sinopsis
En agosto de 1944, tras el desembarco de Normandía, las tropas del Tercer Ejército del general Patton se dirigen a París, pero se quedan sin suministros y no pueden seguir avanzando. Patton decide entonces que un pelotón se abra camino internándose en territorio enemigo. (FILMAFFINITY)



Imagen



-------------------------------Vídeo: --------------------------------

Encode a partir del bluray de Kino Lorber, que me proporciono Forrest :wink: , bastante sorprendido con la restauración, Kino no es precisamente una de mis editoras predilectas, aunque parece que últimamente empiezan hacer las cosas decentemente.

Negros en abundancia, bien contrastada, con apenas rasguños o marcas y grano en abundancia.



BR 720p Vs Bluray (Kino Lorber)

Imagen Imagen Imagen Imagen Imagen Imagen Imagen Imagen Imagen Imagen Imagen Imagen


Código: Seleccionar todo

General
Unique ID                                : 274589588503169043375310166251162488210 (0xCE9407F59D2F2CC70FEC2BAE9F36CD92)
Complete name                            : D:\Incoming\1952-Red.Ball.Express.BRx264.720p.AAC.(DMMD).mkv
Format                                   : Matroska
Format version                           : Version 4
File size                                : 4.99 GiB
Duration                                 : 1 h 23 min
Overall bit rate                         : 8 548 kb/s
Movie name                               : 1952-Red.Ball.Express.BRx264.720p.AAC.(DMMD).mkv
Encoded date                             : UTC 2020-12-18 23:18:54
Writing application                      : mkvmerge v51.0.0 ('I Wish') 64-bit
Writing library                          : libebml v1.4.0 + libmatroska v1.6.2
Attachments                              : 1 / 2 / 3

Video
ID                                       : 1
Format                                   : AVC
Format/Info                              : Advanced Video Codec
Format profile                           : High@L4.1
Format settings                          : CABAC / 11 Ref Frames
Format settings, CABAC                   : Yes
Format settings, Reference frames        : 11 frames
Codec ID                                 : V_MPEG4/ISO/AVC
Duration                                 : 1 h 23 min
Bit rate                                 : 8 342 kb/s
Width                                    : 978 pixels
Height                                   : 720 pixels
Display aspect ratio                     : 4:3
Frame rate mode                          : Constant
Frame rate                               : 23.976 (24000/1001) FPS
Color space                              : YUV
Chroma subsampling                       : 4:2:0
Bit depth                                : 8 bits
Scan type                                : Progressive
Bits/(Pixel*Frame)                       : 0.494
Stream size                              : 4.87 GiB (98%)
Writing library                          : x264 core 152 r2851kMod ba24899
Encoding settings                        : cabac=1 / ref=11 / deblock=1:-3:-3 / analyse=0x3:0x133 / me=umh / subme=11 / psy=1 / fade_compensate=0.00 / psy_rd=1.08:0.00 / mixed_ref=1 / me_range=24 / chroma_me=1 / trellis=2 / 8x8dct=1 / cqm=0 / deadzone=21,11 / fast_pskip=0 / chroma_qp_offset=-2 / threads=6 / lookahead_threads=1 / sliced_threads=0 / nr=0 / decimate=0 / interlaced=0 / bluray_compat=0 / constrained_intra=0 / bframes=8 / b_pyramid=2 / b_adapt=2 / b_bias=0 / direct=3 / weightb=1 / open_gop=0 / weightp=2 / keyint=250 / keyint_min=23 / scenecut=40 / intra_refresh=0 / rc=crf / mbtree=0 / crf=18.4000 / qcomp=0.64 / qpmin=0 / qpmax=69 / qpstep=4 / ip_ratio=1.40 / pb_ratio=1.30 / aq=3:0.58
Language                                 : English
Default                                  : Yes
Forced                                   : No

Audio
ID                                       : 2
Format                                   : AAC LC
Format/Info                              : Advanced Audio Codec Low Complexity
Codec ID                                 : A_AAC-2
Duration                                 : 1 h 23 min
Bit rate                                 : 183 kb/s
Channel(s)                               : 2 channels
Channel layout                           : L R
Sampling rate                            : 48.0 kHz
Frame rate                               : 46.875 FPS (1024 SPF)
Compression mode                         : Lossy
Delay relative to video                  : 9 ms
Stream size                              : 110 MiB (2%)
Language                                 : English
Default                                  : Yes
Forced                                   : No

Text #1
ID                                       : 3
Format                                   : UTF-8
Codec ID                                 : S_TEXT/UTF8
Codec ID/Info                            : UTF-8 Plain Text
Duration                                 : 1 h 21 min
Bit rate                                 : 72 b/s
Count of elements                        : 985
Stream size                              : 43.4 KiB (0%)
Language                                 : Spanish
Default                                  : No
Forced                                   : No

Text #2
ID                                       : 4
Format                                   : UTF-8
Codec ID                                 : S_TEXT/UTF8
Codec ID/Info                            : UTF-8 Plain Text
Duration                                 : 1 h 21 min
Bit rate                                 : 77 b/s
Count of elements                        : 1160
Stream size                              : 46.5 KiB (0%)
Language                                 : English
Default                                  : No
Forced                                   : No

Text #3
ID                                       : 5
Format                                   : PGS
Muxing mode                              : zlib
Codec ID                                 : S_HDMV/PGS
Codec ID/Info                            : Picture based subtitle format used on BDs/HD-DVDs
Duration                                 : 1 h 21 min
Bit rate                                 : 42.4 kb/s
Count of elements                        : 1488
Stream size                              : 24.9 MiB (0%)
Language                                 : English
Default                                  : No
Forced                                   : No

Menu
00:00:00.000                             : en:Capítulo 01
00:10:03.603                             : en:Capítulo 02
00:18:40.911                             : en:Capítulo 03
00:29:59.798                             : en:Capítulo 04
00:44:13.150                             : en:Capítulo 05
00:55:26.323                             : en:Capítulo 06
01:06:00.706                             : en:Capítulo 07
01:15:40.577                             : en:Capítulo 08

BR 720p Vs DVD Universal France (Pal)

Imagen
Imagen


BR 720p Vs DVD Universal Vault (Ntsc)


Imagen
Imagen



Imagen



-----------------------------------------------Audios y sub.---------------------------------------------

Para la VO audio AAC (English: DTS-HD Master Audio Mono), sub planos y estilos del propio Bluray.

Para los sub en castellano se han utilizado los proporcionados por Arthur James Hamp (mil gracias), sincronización de las tediosas.




Imagen



CAPTURAS

Imagen
Imagen
Imagen
Imagen
Imagen
Imagen
Imagen
Imagen



Enlace de descarga

Imagen

ed2k link1952-Red.Ball.Express.BRx264.720p.AAC.(DMMD).mkv ed2k link stats


Imagen

ostrata
Mensajes: 2285
Registrado: Mié 24 Mar, 2010 17:29

Re: Red Ball Express (Budd Boetticher, 1952) HD 720p VOSE

Mensaje por ostrata » Sab 19 Dic, 2020 13:38

Genial, DMMD, gracias. :)

Saludos.

Avatar de Usuario
Dardo
Arrow Thrower Clown
Mensajes: 16733
Registrado: Dom 19 Oct, 2003 02:00
Ubicación: Entre Encinas y Dolomías

Re: Red Ball Express (Budd Boetticher, 1952) HD 720p VOSE

Mensaje por Dardo » Sab 19 Dic, 2020 14:57

Qué jovencito Sidney Poitier que está en la lista de mis actores favoritos.

No he visto este Boetticher así que hay que ponerle remedio, además la mejora es notable con respecto a los SD.

Gracias DMMD

Avatar de Usuario
eulsus
Mensajes: 1552
Registrado: Vie 18 May, 2007 10:41
Ubicación: La Palma

Re: Red Ball Express (Budd Boetticher, 1952) HD 720p VOSE

Mensaje por eulsus » Sab 19 Dic, 2020 15:48

Fenomenal como siempre, DMMD.

Y gracias también a Forrest por aportar el blu-ray.

Besitos para los dos. :D
Imagen
Antonio García-Trevijano Forte (1927-2018)
"Para que yo sea libre, todos tienen que ser libres"

Abstención activa hasta que haya Libertad Colectiva

Avatar de Usuario
DMMD
Mensajes: 1757
Registrado: Lun 27 Feb, 2012 14:16

Re: Red Ball Express (Budd Boetticher, 1952) HD 720p VOSE

Mensaje por DMMD » Sab 19 Dic, 2020 18:40

eulsus escribió:
Sab 19 Dic, 2020 15:48

Besitos para los dos. :D
Otro para ti guapo. :mrgreen:

Avatar de Usuario
WalterBurns
Mensajes: 1194
Registrado: Dom 11 Oct, 2015 15:08

Re: Red Ball Express (Budd Boetticher, 1952) HD 720p VOSE

Mensaje por WalterBurns » Sab 19 Dic, 2020 22:14

Gracias por compartirla.

Avatar de Usuario
paizoco
Mensajes: 2787
Registrado: Vie 21 Nov, 2003 01:00
Ubicación: Far West

Re: Red Ball Express (Budd Boetticher, 1952) HD 720p VOSE

Mensaje por paizoco » Dom 20 Dic, 2020 00:56

Me apunto, muchas gracias DMMD

Avatar de Usuario
Spanish Jhonny
Mensajes: 3045
Registrado: Mar 18 Sep, 2012 16:01

Re: Red Ball Express (Budd Boetticher, 1952) HD 720p VOSE

Mensaje por Spanish Jhonny » Dom 20 Dic, 2020 08:55

Pinchop.
Muchas gracias DMMD.
Un saludo.

Avatar de Usuario
bull
Mensajes: 261
Registrado: Lun 23 Sep, 2013 14:22

Re: Red Ball Express (Budd Boetticher, 1952) HD 720p VOSE

Mensaje por bull » Dom 20 Dic, 2020 14:21

Pinchada como no podia ser de otra forma.
Muchas gracias DMMD.
Saludos.

Avatar de Usuario
hector Glauco
Mensajes: 554
Registrado: Lun 10 Ago, 2015 14:13
Ubicación: En el Tarragonés y FDL2

Re: Red Ball Express (Budd Boetticher, 1952) HD 720p VOSE

Mensaje por hector Glauco » Dom 20 Dic, 2020 17:06

Pinchada queda. Gran aporte. Merci DMMD

Avatar de Usuario
bull
Mensajes: 261
Registrado: Lun 23 Sep, 2013 14:22

Re: Red Ball Express (Budd Boetticher, 1952) HD 720p VOSE

Mensaje por bull » Lun 04 Ene, 2021 13:56

Vista la peli, cabe destacar que es flojilla como ella sola, aparte de faltar a la verdad (nada nuevo).
Por si alguien no sabe a que me refiero, con ver la ultima foto del post principal y luego ver la peli, sabrá de que hablo.
Pero bueno, pasa a engrosar mi colección de cine bélico que es de lo que se trata.
pd.: ...lo mejor, lo guapa que me ha parecido Judith Braun en esta película.
Lo dicho, gracias chicos.

Avatar de Usuario
Jacob
Exprópiese
Mensajes: 9821
Registrado: Jue 01 Jul, 2004 02:00
Ubicación: Where no one has gone before!

Re: Red Ball Express (Budd Boetticher, 1952) HD 720p VOSE

Mensaje por Jacob » Lun 04 Ene, 2021 14:38

bull escribió:
Lun 04 Ene, 2021 13:56
Vista la peli, cabe destacar que es flojilla como ella sola, aparte de faltar a la verdad (nada nuevo).
Por si alguien no sabe a que me refiero, con ver la ultima foto del post principal y luego ver la peli, sabrá de que hablo.
No he visto la película pero ya sé a lo que te refieres. :(
Gracias por el comentario. :wink:

https://www.imdb.com/title/tt0045072/go ... =tt_trv_gf
The majority of Red Ball Express drivers were African American. The US Army used them for the dangerous driving routes as they were considered to be expendable. The film doesn't reflect the demographic realities of the unit.
Y gracias a DMMD por el ripeo.

larigan
Mensajes: 566
Registrado: Dom 15 Nov, 2015 17:00

Re: Red Ball Express (Budd Boetticher, 1952) HD 720p VOSE

Mensaje por larigan » Mié 06 Ene, 2021 16:08

Gracias

Responder