Operación Cicerón (Joseph L. Mankiewicz, 1952) DVDRip Dual SE

Publica y encuentra enlaces p2p de filmes hasta 1980 en esta sección.
Responder
DCINE
Mensajes: 517
Registrado: Mar 20 Dic, 2016 15:02

Operación Cicerón (Joseph L. Mankiewicz, 1952) DVDRip Dual SE

Mensaje por DCINE » Jue 03 Sep, 2020 08:52

Operación Cicerón (Cinco dedos)
(Five Fingers)

1952

Imagen


AKA: Operazione Cicero/L'affaire Cicéron/Der Fall Cicero

DIRECTOR: Joseph L. Mankiewicz
PRODUCTORA: 20th Century Fox
GUIÓN: Michael Wilson, Joseph L. Mankiewicz (Novela: L.C. Moyzisch)
MÚSICA: Bernard Herrmann
FOTOGRAFÍA: Norbert Brodine


ImagenImagenImagen
Imagen



ARGUMENTO Turquía era oficialmente neutral durante la Segunda Guerra Mundial, pero en realidad sirvió como punto de encuentro de los espías de las potencias beligerantes, que buscaban una oportunidad para intercambiar secretos militares. Un complejo caso de espionaje, en el que estuvieron implicados alemanes e ingleses, estuvo a punto de cambiar el curso de la guerra, inclinando la balanza del lado de las potencias del Eje Berlín-Roma-Tokio. Diello (James Mason), un ambicioso personaje que era secretario del embajador inglés, tramó un arriesgado plan para vender secretos británicos a los nazis y huir después a Sudamérica. (FILMAFFINITY) IMDB: https://www.imdb.com/title/tt0044314/

ImagenImagenImagen
ImagenImagenImagen
ImagenImagenImagen
ImagenImagenImagen
ImagenImagen


Reparto: James Mason, Danielle Darrieux, Michael Rennie, Walter Hampden, Oscar Karlweis, Herbert Berghof, Ben Astar, John Wengraf

ImagenImagenImagen


Datos técnicos

Fuente: Ripeo sobre un DVDFull procedente de rutracker, no es gran cosa, pero tenemos la peli en versión íntegra, no como el DVD de Suevia, al que le faltan unos 40seg

Audios:

V.O. (Inglés): En AC-3

Doblajes:

Español: El de su estreno en cines en 1952, Del ripeo de Mercedes procedente del DVD de Suevia.

Italiano: El de su estreno en cines en 1952, de un ripeo encontrado en emule.

Francés: El de su estreno en cines en 1952, ya venía en el DVDFull.

Alemán: El de su estreno en cines en 1952, De un ripeo encontrado en internet.



Subtítulos:

Españoles: Completos de opensubtitles y forzados creados por mi en base a los completos
Italianos: Del ripeo de donde extraje el doblaje italiano
Francés: De opensubtitles

Código: Seleccionar todo

General:
Complete name                    : 1952 Operación Cicerón (Five Fingers) (Mankiewicz) DVDRip (Spa (Doblaje Cines 1952)-Eng-Ita-Fre-Ger) SE-Ita-Fr by DCINE.mkv
Format                           : Matroska
Format version                   : Version 4 / Version 2
File size                        : 1.62 GiB
Duration                         : 1h 43mn
Overall bit rate                 : 2 237 Kbps
Movie name                       : 1952 Operación Cicerón (5 dedos)/5 Fingers/Operazione Cicero/L'affaire Cicéron/Der Fall Cicero (Joseph L. Mankiewicz, 1952) DVDRip Quintual (Spa (Doblaje Cines 1952)-Eng-Ita (Doppiaggio originale 1952)-Fre (Doublage original 1952)-Ger (Synchronisation von 1952)) SE-Ita-Fr by DCINE.mkv
Encoded date                     : UTC 2020-08-29 09:51:49
Writing application              : mkvmerge v7.1.0 ('Good Love') 32bit built on Jul 27 2014 12:59:18
Writing library                  : libebml v1.3.0 + libmatroska v1.4.1
_STATISTICS_WRITING_APP          : mkvmerge v7.1.0 ('Good Love') 32bit built on Jul 27 2014 12:59:18
_STATISTICS_WRITING_DATE_UTC     : 2020-08-29 09:51:49
_STATISTICS_TAGS                 : BPS DURATION NUMBER_OF_FRAMES NUMBER_OF_BYTES
DURATION                         : 01:42:27.992000000
NUMBER_OF_FRAMES                 : 1302
NUMBER_OF_BYTES                  : 62306

Video
ID                               : 1
Format                           : AVC
Format/Info                      : Advanced Video Codec
Format profile                   : High@L4.1
Format settings, CABAC           : Yes
Format settings, ReFrames        : 16 frames
Codec ID                         : V_MPEG4/ISO/AVC
Duration                         : 1h 43mn
Bit rate                         : 1 233 Kbps
Width                            : 698 pixels
Height                           : 570 pixels
Display aspect ratio             : 4:3
Original display aspect ratio    : 4:3
Frame rate mode                  : Variable
Frame rate                       : 25.000 fps
Color space                      : YUV
Chroma subsampling               : 4:2:0
Bit depth                        : 8 bits
Scan type                        : Progressive
Bits/(Pixel*Frame)               : 0.124
Stream size                      : 913 MiB (55%)
Writing library                  : x264 core 155 r2901 7d0ff22
Encoding settings                : cabac=1 / ref=16 / deblock=1:0:0 / analyse=0x3:0x133 / me=umh / subme=10 / psy=1 / psy_rd=1.00:0.00 / mixed_ref=1 / me_range=24 / chroma_me=1 / trellis=2 / 8x8dct=1 / cqm=0 / deadzone=21,11 / fast_pskip=1 / chroma_qp_offset=-2 / threads=3 / lookahead_threads=1 / sliced_threads=0 / nr=0 / decimate=1 / interlaced=0 / bluray_compat=0 / constrained_intra=0 / bframes=8 / b_pyramid=2 / b_adapt=2 / b_bias=0 / direct=3 / weightb=1 / open_gop=0 / weightp=2 / keyint=250 / keyint_min=25 / scenecut=40 / intra_refresh=0 / rc_lookahead=60 / rc=crf / mbtree=1 / crf=18.0 / qcomp=0.60 / qpmin=0 / qpmax=69 / qpstep=4 / vbv_maxrate=62500 / vbv_bufsize=78125 / crf_max=0.0 / nal_hrd=none / filler=0 / ip_ratio=1.40 / aq=1:1.00
Default                          : Yes
Forced                           : No
_STATISTICS_WRITING_APP          : mkvmerge v7.1.0 ('Good Love') 32bit built on Jul 27 2014 12:59:18
_STATISTICS_WRITING_DATE_UTC     : 2020-08-29 09:51:49
_STATISTICS_TAGS                 : BPS DURATION NUMBER_OF_FRAMES NUMBER_OF_BYTES
DURATION                         : 01:43:30.040000000
NUMBER_OF_FRAMES                 : 155250
NUMBER_OF_BYTES                  : 987731202
Color primaries                  : BT.470-6 System B, BT.470-6 System G, BT.601-6 625, BT.1358 625, BT.1700 625 PAL, BT.1700 625 SECAM
Transfer characteristics         : BT.709-5, BT.1361
Matrix coefficients              : BT.601-6 525, BT.1358 525, BT.1700 NTSC, SMPTE 170M

Audio #1
ID                               : 2
Format                           : AC-3
Format/Info                      : Audio Coding 3
Mode extension                   : CM (complete main)
Codec ID                         : A_AC3
Duration                         : 1h 43mn
Bit rate mode                    : Constant
Bit rate                         : 192 Kbps
Channel(s)                       : 1 channel
Channel positions                : Front: C
Sampling rate                    : 48.0 KHz
Bit depth                        : 16 bits
Compression mode                 : Lossy
Stream size                      : 142 MiB (9%)
Title                            : Doblaje Cines 1952
Language                         : Spanish
Default                          : Yes
Forced                           : Yes

Audio #2
ID                               : 3
Format                           : AC-3
Format/Info                      : Audio Coding 3
Mode extension                   : CM (complete main)
Codec ID                         : A_AC3
Duration                         : 1h 43mn
Bit rate mode                    : Constant
Bit rate                         : 192 Kbps
Channel(s)                       : 1 channel
Channel positions                : Front: C
Sampling rate                    : 48.0 KHz
Bit depth                        : 16 bits
Compression mode                 : Lossy
Stream size                      : 142 MiB (9%)
Language                         : English
Default                          : No
Forced                           : No

Audio #3
ID                               : 4
Format                           : AC-3
Format/Info                      : Audio Coding 3
Mode extension                   : CM (complete main)
Codec ID                         : A_AC3
Duration                         : 1h 43mn
Bit rate mode                    : Constant
Bit rate                         : 192 Kbps
Channel(s)                       : 1 channel
Channel positions                : Front: C
Sampling rate                    : 48.0 KHz
Bit depth                        : 16 bits
Compression mode                 : Lossy
Stream size                      : 142 MiB (9%)
Title                            : Doppiaggio originale 1952
Language                         : Italian
Default                          : No
Forced                           : No

Audio #4
ID                               : 5
Format                           : AC-3
Format/Info                      : Audio Coding 3
Mode extension                   : CM (complete main)
Codec ID                         : A_AC3
Duration                         : 1h 43mn
Bit rate mode                    : Constant
Bit rate                         : 192 Kbps
Channel(s)                       : 1 channel
Channel positions                : Front: C
Sampling rate                    : 48.0 KHz
Bit depth                        : 16 bits
Compression mode                 : Lossy
Stream size                      : 142 MiB (9%)
Title                            : Doublage original 1952
Language                         : French
Default                          : No
Forced                           : No

Audio #5
ID                               : 6
Format                           : AC-3
Format/Info                      : Audio Coding 3
Mode extension                   : CM (complete main)
Codec ID                         : A_AC3
Duration                         : 1h 43mn
Bit rate mode                    : Constant
Bit rate                         : 192 Kbps
Channel(s)                       : 1 channel
Channel positions                : Front: C
Sampling rate                    : 48.0 KHz
Bit depth                        : 16 bits
Compression mode                 : Lossy
Stream size                      : 142 MiB (9%)
Title                            : Synchronisation von 1952
Language                         : German
Default                          : No
Forced                           : No

Text #1
ID                               : 7
Format                           : UTF-8
Codec ID                         : S_TEXT/UTF8
Codec ID/Info                    : UTF-8 Plain Text
Title                            : Forzados
Language                         : Spanish
Default                          : Yes
Forced                           : Yes

Text #2
ID                               : 8
Format                           : UTF-8
Codec ID                         : S_TEXT/UTF8
Codec ID/Info                    : UTF-8 Plain Text
Language                         : Spanish
Default                          : No
Forced                           : No

Text #3
ID                               : 9
Format                           : VobSub
Muxing mode                      : zlib
Codec ID                         : S_VOBSUB
Codec ID/Info                    : The same subtitle format used on DVDs
Title                            : Italiano
Language                         : Italian
Default                          : No
Forced                           : No

Text #4
ID                               : 10
Format                           : UTF-8
Codec ID                         : S_TEXT/UTF8
Codec ID/Info                    : UTF-8 Plain Text
Language                         : French
Default                          : No
Forced                           : No

Menu
00:00:00.000                     : en:Chapter 1
00:02:04.800                     : en:Chapter 2
00:08:15.360                     : en:Chapter 3
00:13:59.520                     : en:Chapter 4
00:16:57.600                     : en:Chapter 5
00:25:27.840                     : en:Chapter 6
00:34:13.920                     : en:Chapter 7
00:41:00.480                     : en:Chapter 8
00:46:13.440                     : en:Chapter 9
00:55:36.480                     : en:Chapter 10
01:03:48.480                     : en:Chapter 11
01:10:23.040                     : en:Chapter 12
01:19:21.600                     : en:Chapter 13
01:25:43.200                     : en:Chapter 14
01:33:04.320                     : en:Chapter 15
01:38:39.840                     : en:Chapter 16


Capturas:

Imagen Imagen
Imagen Imagen
Imagen Imagen
Imagen Imagen
Imagen Imagen

Enlace: ed2k link1952 Operación Cicerón (Five Fingers) (Mankiewicz) DVDRip (Spa (Doblaje Cines 1952)-Eng-Ita-Fre-Ger) SE-Ita-Fr by DCINE.mkv ed2k link stats

Créditos iniciales castellanos originales de época


Otras copias en la web:
DVDRip Dual SE: viewtopic.php?f=1002&t=24695&hilit=fingers+1952
DVDRip VOSE+AE: viewtopic.php?f=1002&t=38479&hilit=fingers+1952

Avatar de Usuario
Jolmart
Mensajes: 720
Registrado: Vie 03 Abr, 2015 14:02

Re: Operación Cicerón (Joseph L. Mankiewicz, 1952) DVDRip Dual SE

Mensaje por Jolmart » Jue 03 Sep, 2020 13:33

Una inolvidable película de espías que aún viendo su vetustez no la ha comido el tiempo, no como otras de mucho rimbombin.
Sería interesante una remasterizacion digital, sugiero.

Mil gracias.
" De USA importamos todo, hasta las mentiras ".

Avatar de Usuario
Spanish Jhonny
Mensajes: 3112
Registrado: Mar 18 Sep, 2012 16:01

Re: Operación Cicerón (Joseph L. Mankiewicz, 1952) DVDRip Dual SE

Mensaje por Spanish Jhonny » Vie 04 Sep, 2020 08:20

Muy buena película
Muchas gracias DCINE, también a Mercedes, por supuesto ;)
Un saludo

ostrata
Mensajes: 2316
Registrado: Mié 24 Mar, 2010 17:29

Re: Operación Cicerón (Joseph L. Mankiewicz, 1952) DVDRip Dual SE

Mensaje por ostrata » Dom 06 Sep, 2020 12:57

Gracias. :)

Saludos.

Avatar de Usuario
mortimerbrewster
Mensajes: 2025
Registrado: Mar 13 Jul, 2004 02:00
Ubicación: madrid (leganes)

Re: Operación Cicerón (Joseph L. Mankiewicz, 1952) DVDRip Dual SE

Mensaje por mortimerbrewster » Dom 06 Sep, 2020 19:42

que esta obra maestra no haya salido en Bluray... con la de mierdas que han sacado ya.... :cabezon: :cabezon: :cabezon:
Alta Definición es una necesidad, no un lujo.

Avatar de Usuario
WalterBurns
Mensajes: 1194
Registrado: Dom 11 Oct, 2015 15:08

Re: Operación Cicerón (Joseph L. Mankiewicz, 1952) DVDRip Dual SE

Mensaje por WalterBurns » Lun 07 Sep, 2020 21:08

Gracias por la información.

torresmostoles
Pasion por los clasicos!!
Mensajes: 182
Registrado: Dom 25 Mar, 2018 18:55
Ubicación: madrid sur

Re: Operación Cicerón (Joseph L. Mankiewicz, 1952) DVDRip Dual SE

Mensaje por torresmostoles » Lun 14 Sep, 2020 22:45

Gracias de cine que hariamos sin ti que buenos montajes un lujo tenerte en el foro :plas: :plas: :plas:

Sisifo1984
Mensajes: 42
Registrado: Sab 07 Ene, 2012 21:27

Re: Operación Cicerón (Joseph L. Mankiewicz, 1952) DVDRip Dual SE

Mensaje por Sisifo1984 » Mar 15 Sep, 2020 15:15

mortimerbrewster escribió:
Dom 06 Sep, 2020 19:42
que esta obra maestra no haya salido en Bluray... con la de mierdas que han sacado ya.... :cabezon: :cabezon: :cabezon:
Sí mortimer. Completamente de acuerdo. Esta es una JOYA ABSOLUTA. Qué diálogos. Qué guión. Qué recital de James Mason.... Creo que de Mankiewicz está editado todo salvo la interesante y desconocida Escape.

Avatar de Usuario
baldomp
Mensajes: 431
Registrado: Mar 15 Ago, 2017 12:55

Re: Operación Cicerón (Joseph L. Mankiewicz, 1952) DVDRip Dual SE

Mensaje por baldomp » Mar 15 Sep, 2020 19:27

Grande. Enganchando....
Si. Es una joya indudable. Y lo del audio "de la época" ya... :D
Gracias a los dos. DCINE y Mercedes.

Avatar de Usuario
Forrest Gump
Mensajes: 1603
Registrado: Vie 18 May, 2007 18:06
Ubicación: Zihuatanejo

Re: Operación Cicerón (Joseph L. Mankiewicz, 1952) DVDRip Dual SE

Mensaje por Forrest Gump » Jue 11 Feb, 2021 21:36

¡Muchas gracias, DCINE! :plas:
Me pregunto por qué se abrió el presente hilo existiendo este otro: viewtopic.php?f=1002&t=24695
:roll:
Made it, Ma, top of the world!

Responder