Su majestad de los mares del sur (Byron Haskin, 1954) DVDRip Dual SE

Publica y encuentra enlaces p2p de filmes hasta 1980 en esta sección.
Responder
DCINE
Mensajes: 498
Registrado: Mar 20 Dic, 2016 15:02

Su majestad de los mares del sur (Byron Haskin, 1954) DVDRip Dual SE

Mensaje por DCINE » Sab 30 May, 2020 09:22

Su majestad e los mares del sur
(His Majesty O'Keefe)

1954

Imagen


AKA: Il trono nero

DIRECTOR: Byron Haskin
PRODUCTORA: Warner Bros
GUIÓN: Borden Chase, James Hill (Novela: Lawrence Klingman, Gerald Green)
MÚSICA: Dimitri Tiomkin
FOTOGRAFÍA: Otto Heller

ImagenImagenImagen

ImagenImagenImagen


ARGUMENTO Un marinero aventurero es abandonado en un bote a la deriva a causa de un motín. En medio del mar, y a causa del sol, pierde el conocimiento, que recobra ya cuando está en una pequeña isla bajo los cuidados de un curandero indígena y de un comerciante alemán.
El aventurero pronto se hace con la confianza de los indígenas, a quienes enseña nuevas costumbres y a defenderse de los piratas. Así, consigue también el control sobre la producción de copra del que se extrae un rico aceite, que también una compañía alemana pretende monopolizar. Poco a poco se va convirtiendo en el rey de la isla. (FILMAFFINITY) IMDB: https://www.imdb.com/title/tt0045876/


ImagenImagenImagen
ImagenImagenImagen
ImagenImagenImagen
ImagenImagenImagen
ImagenImagenImagen

Reparto: Burt Lancaster, Joan Rice, André Morell, Abraham Sofaer, Archie Savage, Benson Fong, Lloyd Berrell, Charles Horvath, Teresa Prendergast

ImagenImagen

Datos técnicos

Fuente: Ripeo del DVD Español procedente de exvagos subido por yushiro

Audios:

V.O. (Inglés): En AC-3

Doblajes:

Español: Dos audios

El del estreno en cines de 1954: El que trae el DVD

El del su pase por TVE en 1982: Del ripeo de Jpetrus. Sincro fácil menos en los créditos iniciales, debido a que este doblaje se hizo sobre la copia distribuida en Reino Unido. En dicha copia, los créditos presentan una tipografía, fondo y música distintos a los de la copia americana. Al ser la música distinta, notaréis pequeños cambios en la voz en off que traduce el título y el texto introductorio.

Italiano: El de su estreno en cines en 1954, de un ripeo encontrado en emule.


Subtítulos:

Español: Subrip de Subdivx y VobSub del DVD
Ingles: De opensubtitles

Código: Seleccionar todo

General:
Complete name                    : 1954 Su majestad de los mares del sur (His Majesty O'Keefe) (Byron Haskin, 1954) DVDRip (Spa (Doblaje Cines 1954 - TVE 1982)-Eng-Ita) SE-I by DCINE.mkv
Format                           : Matroska
Format version                   : Version 4 / Version 2
File size                        : 2.69 GiB
Duration                         : 1h 26mn
Overall bit rate                 : 4 455 Kbps
Movie name                       : 1954 Su majestad de los mares del sur/His Majesty O'Keefe/Il trono nero (Byron Haskin, 1954) DVDRip Cuatrial (Spa (Doblaje Cines 1954/Doblaje TVE 1982)-Eng-Ita (Doppiaggio originale 1954)) SE-I by DCINE.mkv
Encoded date                     : UTC 2020-05-25 18:53:54
Writing application              : mkvmerge v7.1.0 ('Good Love') 32bit built on Jul 27 2014 12:59:18
Writing library                  : libebml v1.3.0 + libmatroska v1.4.1
DURATION                         : 01:26:29.056000000
NUMBER_OF_FRAMES                 : 162158
NUMBER_OF_BYTES                  : 124537344
_STATISTICS_WRITING_APP          : mkvmerge v7.1.0 ('Good Love') 32bit built on Jul 27 2014 12:59:18
_STATISTICS_WRITING_DATE_UTC     : 2020-05-25 18:53:54
_STATISTICS_TAGS                 : BPS DURATION NUMBER_OF_FRAMES NUMBER_OF_BYTES

Video
ID                               : 1
Format                           : AVC
Format/Info                      : Advanced Video Codec
Format profile                   : High@L4.1
Format settings, CABAC           : Yes
Format settings, ReFrames        : 16 frames
Codec ID                         : V_MPEG4/ISO/AVC
Duration                         : 1h 26mn
Bit rate                         : 3 599 Kbps
Width                            : 712 pixels
Height                           : 572 pixels
Display aspect ratio             : 4:3
Original display aspect ratio    : 4:3
Frame rate mode                  : Variable
Frame rate                       : 25.000 fps
Color space                      : YUV
Chroma subsampling               : 4:2:0
Bit depth                        : 8 bits
Scan type                        : Progressive
Bits/(Pixel*Frame)               : 0.353
Stream size                      : 2.17 GiB (81%)
Writing library                  : x264 core 155 r2901 7d0ff22
Encoding settings                : cabac=1 / ref=16 / deblock=1:0:0 / analyse=0x3:0x133 / me=umh / subme=10 / psy=1 / psy_rd=1.00:0.00 / mixed_ref=1 / me_range=24 / chroma_me=1 / trellis=2 / 8x8dct=1 / cqm=0 / deadzone=21,11 / fast_pskip=1 / chroma_qp_offset=-2 / threads=3 / lookahead_threads=1 / sliced_threads=0 / nr=0 / decimate=1 / interlaced=0 / bluray_compat=0 / constrained_intra=0 / bframes=8 / b_pyramid=2 / b_adapt=2 / b_bias=0 / direct=3 / weightb=1 / open_gop=0 / weightp=2 / keyint=250 / keyint_min=25 / scenecut=40 / intra_refresh=0 / rc_lookahead=60 / rc=crf / mbtree=1 / crf=18.0 / qcomp=0.60 / qpmin=0 / qpmax=69 / qpstep=4 / vbv_maxrate=62500 / vbv_bufsize=78125 / crf_max=0.0 / nal_hrd=none / filler=0 / ip_ratio=1.40 / aq=1:1.00
Default                          : Yes
Forced                           : No
_STATISTICS_WRITING_APP          : mkvmerge v7.1.0 ('Good Love') 32bit built on Jul 27 2014 12:59:18
_STATISTICS_WRITING_DATE_UTC     : 2020-05-25 18:53:54
_STATISTICS_TAGS                 : BPS DURATION NUMBER_OF_FRAMES NUMBER_OF_BYTES
DURATION                         : 01:26:29.000000000
NUMBER_OF_FRAMES                 : 129725
NUMBER_OF_BYTES                  : 2388795017
Color primaries                  : BT.470-6 System B, BT.470-6 System G, BT.601-6 625, BT.1358 625, BT.1700 625 PAL, BT.1700 625 SECAM
Transfer characteristics         : BT.709-5, BT.1361
Matrix coefficients              : BT.601-6 525, BT.1358 525, BT.1700 NTSC, SMPTE 170M

Audio #1
ID                               : 2
Format                           : AC-3
Format/Info                      : Audio Coding 3
Mode extension                   : CM (complete main)
Codec ID                         : A_AC3
Duration                         : 1h 26mn
Bit rate mode                    : Constant
Bit rate                         : 192 Kbps
Channel(s)                       : 1 channel
Channel positions                : Front: C
Sampling rate                    : 48.0 KHz
Bit depth                        : 16 bits
Compression mode                 : Lossy
Stream size                      : 119 MiB (4%)
Title                            : Doblaje Cines 1954
Language                         : Spanish
Default                          : Yes
Forced                           : Yes

Audio #2
ID                               : 3
Format                           : AC-3
Format/Info                      : Audio Coding 3
Mode extension                   : CM (complete main)
Codec ID                         : A_AC3
Duration                         : 1h 26mn
Bit rate mode                    : Constant
Bit rate                         : 192 Kbps
Channel(s)                       : 1 channel
Channel positions                : Front: C
Sampling rate                    : 48.0 KHz
Bit depth                        : 16 bits
Compression mode                 : Lossy
Stream size                      : 119 MiB (4%)
Title                            : Doblaje TVE 1982
Language                         : Spanish
Default                          : No
Forced                           : No

Audio #3
ID                               : 4
Format                           : AC-3
Format/Info                      : Audio Coding 3
Mode extension                   : CM (complete main)
Codec ID                         : A_AC3
Duration                         : 1h 26mn
Bit rate mode                    : Constant
Bit rate                         : 192 Kbps
Channel(s)                       : 1 channel
Channel positions                : Front: C
Sampling rate                    : 48.0 KHz
Bit depth                        : 16 bits
Compression mode                 : Lossy
Stream size                      : 119 MiB (4%)
Language                         : English
Default                          : No
Forced                           : No
_STATISTICS_WRITING_APP          : mkvmerge v7.1.0 ('Good Love') 32bit built on Jul 27 2014 12:59:18
_STATISTICS_WRITING_DATE_UTC     : 2020-05-25 18:53:54
_STATISTICS_TAGS                 : BPS DURATION NUMBER_OF_FRAMES NUMBER_OF_BYTES
DURATION                         : 01:25:12.357000000
NUMBER_OF_FRAMES                 : 834
NUMBER_OF_BYTES                  : 1000639

Audio #4
ID                               : 5
Format                           : AC-3
Format/Info                      : Audio Coding 3
Mode extension                   : CM (complete main)
Codec ID                         : A_AC3
Duration                         : 1h 26mn
Bit rate mode                    : Constant
Bit rate                         : 192 Kbps
Channel(s)                       : 1 channel
Channel positions                : Front: C
Sampling rate                    : 48.0 KHz
Bit depth                        : 16 bits
Compression mode                 : Lossy
Stream size                      : 119 MiB (4%)
Title                            : Doppiaggio originale 1954
Language                         : Italian
Default                          : No
Forced                           : No

Text #1
ID                               : 6
Format                           : UTF-8
Codec ID                         : S_TEXT/UTF8
Codec ID/Info                    : UTF-8 Plain Text
Title                            : SubRip
Language                         : Spanish
Default                          : No
Forced                           : No

Text #2
ID                               : 7
Format                           : VobSub
Muxing mode                      : zlib
Codec ID                         : S_VOBSUB
Codec ID/Info                    : The same subtitle format used on DVDs
Title                            : VobSub
Language                         : Spanish
Default                          : No
Forced                           : No

Text #3
ID                               : 8
Format                           : UTF-8
Codec ID                         : S_TEXT/UTF8
Codec ID/Info                    : UTF-8 Plain Text
Language                         : English
Default                          : No
Forced                           : No

Menu #1
00:00:00.080                     : :Chapter 1
00:09:45.680                     : :Chapter 2
00:21:35.120                     : :Chapter 3
00:37:56.720                     : :Chapter 4
00:57:50.960                     : :Chapter 5
01:06:37.520                     : :Chapter 6
01:13:24.560                     : :Chapter 7

Menu #2
00:00:00.080                     : en:Chapter 01
00:09:45.680                     : en:Chapter 02
00:21:35.120                     : en:Chapter 03
00:37:56.720                     : en:Chapter 04
00:57:50.960                     : en:Chapter 05
01:06:37.520                     : en:Chapter 06
01:13:24.560                     : en:Chapter 07




Capturas:

Imagen Imagen
Imagen Imagen
Imagen Imagen
Imagen Imagen
Imagen Imagen



Enlace:

1954 Su majestad de los mares del sur (His Majesty O'Keefe) (Byron Haskin, 1954) DVDRip (Spa (Doblaje Cines 1954 - TVE 1982)-Eng-Ita) SE-I by DCINE.mkv

Créditos iniciales alternativos de Reino Unido.


Otras copias en la web:
TVRip VE: viewtopic.php?f=1002&t=31353&hilit=majestad+mares+sur
DVDRip VRus + AE: viewtopic.php?f=1002&t=54551&hilit=majestad+mares+sur
DVDRip VOSI: viewtopic.php?f=1002&t=57287&hilit=Su+m ... es+del+sur
DVDRip Dual SE: viewtopic.php?f=1002&t=61921&hilit=majestad+mares+sur

Avatar de Usuario
Dardo
Arrow Thrower Clown
Mensajes: 16514
Registrado: Dom 19 Oct, 2003 02:00
Ubicación: Entre Encinas y Dolomías

Re: Su majestad de los mares del sur (Byron Haskin, 1954) DVDRip Dual SE

Mensaje por Dardo » Sab 30 May, 2020 09:47

:mrgreen:

Siempre es bueno tener estas joyas actualizadas.

Tanto en Amazon como en Itunes tienen subida una copia en 1080p que llevo rastreando un tiempo a ver si la pillaba porque el trailer me parecía más un reescalado que otra cosa, pero estos vídeos de Itunes o Amazon después suelen ser la antesala del Bluray y en algunas ocasiones hasta estaban mejor de imagen.

Pincho que me gusta tener en el incoming todo lo que subo a la Filmografía de Burt, y más tarde actualizo Filmo.

Muchas gracias DCINE. :sonrisa:

Avatar de Usuario
Spanish Jhonny
Mensajes: 2912
Registrado: Mar 18 Sep, 2012 16:01

Re: Su majestad de los mares del sur (Byron Haskin, 1954) DVDRip Dual SE

Mensaje por Spanish Jhonny » Sab 30 May, 2020 10:26

Muchas gracias por las aventuras DCINE ;)

jjcale
Mensajes: 26
Registrado: Vie 22 May, 2020 22:48

Re: Su majestad de los mares del sur (Byron Haskin, 1954) DVDRip Dual SE

Mensaje por jjcale » Sab 30 May, 2020 13:23

No doy a basto X-D , pero descargando, muchas gracias :-D

Avatar de Usuario
cinefilototal
Mensajes: 94
Registrado: Jue 02 Mar, 2017 12:05

Re: Su majestad de los mares del sur (Byron Haskin, 1954) DVDRip Dual SE

Mensaje por cinefilototal » Dom 31 May, 2020 17:12

¡Muchas gracias!.

Avatar de Usuario
WalterBurns
Mensajes: 1173
Registrado: Dom 11 Oct, 2015 15:08

Re: Su majestad de los mares del sur (Byron Haskin, 1954) DVDRip Dual SE

Mensaje por WalterBurns » Jue 04 Jun, 2020 13:14

Gracias por compartirla.

torresmostoles
La felicidad convertida en cine!
Mensajes: 135
Registrado: Dom 25 Mar, 2018 18:55

Re: Su majestad de los mares del sur (Byron Haskin, 1954) DVDRip Dual SE

Mensaje por torresmostoles » Vie 05 Jun, 2020 14:54

Gracias DCINE buena pelicúla de aventuras :plas: :plas:

bolzato
Mensajes: 158
Registrado: Vie 14 Sep, 2012 16:36

Re: Su majestad de los mares del sur (Byron Haskin, 1954) DVDRip Dual SE

Mensaje por bolzato » Sab 06 Jun, 2020 08:34

Muchas gracias, DCINE.

Responder