Les loups dans la bergerie (Hervé Bromberger, 1960) BRRip VOSE

Publica y encuentra enlaces p2p de filmes hasta 1980 en esta sección.
Responder
Avatar de Usuario
hammett
Mensajes: 488
Registrado: Vie 10 Oct, 2008 09:04

Les loups dans la bergerie (Hervé Bromberger, 1960) BRRip VOSE

Mensaje por hammett » Lun 21 Oct, 2019 12:25

LES LOUPS DANS LA BERGERIE

Imagen

País: Francia
B/N

Director: Hervé Bromberger
Guión: Hervé Bromberger y Frédéric Grendel
Novela: John Amila
Productor: Gilbert de Goldschmidt
Director de fotografía: Jacaues Mercanton
Música: Serge Gainsbourg y Alain Goraguer
Montaje: Denise Natot

IMDB

Reparto: Jean-Marc Bory, Pascale Roberts, Jean Babilée, Pierre Mondy, Jean-François Prono, Jacques Moulières, Guy Deshays, Jacques Bonnard, Françoise Dorléac

Sinopsis y comentarios: Tres gangsters en fuga se refugian en un centro de educación para delincuentes juveniles. Hay división de opiniones entre los internos sobre la postura a adoptar. (FILMAFFINITY)

Capturas:

Imagen

Imagen

Imagen

Imagen

Imagen

Imagen


Datos técnicos:
Spoiler: mostrar
General
Unique ID : 207811877388829303248413095977175299978 (0x9C571C9B66EE811F8B1553C426ED378A)
Complete name : J:\Conversion\Video\LOUPS_BERGERIE\Les loups dans la bergerie (Hervé Bromberger, 1960) Francés.mkv
Format : Matroska
Format version : Version 2
File size : 2.88 GiB
Duration : 1h 22mn
Overall bit rate mode : Constant
Overall bit rate : 5 017 Kbps
Movie name : LOUPS_BERGERIE.Title0
Encoded date : UTC 2018-05-16 14:02:24
Writing application : DVDFab 10.0.9.2
Writing library : libebml v1.3.4 + libmatroska v1.4.5
DURATION : 01:22:15.200000000
NUMBER_OF_FRAMES : 154225
NUMBER_OF_BYTES : 118444800
_STATISTICS_WRITING_APP : DVDFab 10.0.9.2
_STATISTICS_WRITING_DATE_UTC : 2018-05-16 14:02:24
_STATISTICS_TAGS : BPS DURATION NUMBER_OF_FRAMES NUMBER_OF_BYTES

Video
ID : 1
Format : AVC
Format/Info : Advanced Video Codec
Format profile : High@L4.0
Format settings, CABAC : Yes
Format settings, ReFrames : 1 frame
Format settings, GOP : M=1, N=25
Codec ID : V_MPEG4/ISO/AVC
Duration : 1h 22mn
Bit rate mode : Constant
Bit rate : 4 860 Kbps
Width : 1 800 pixels
Height : 1 080 pixels
Display aspect ratio : 1.667
Frame rate mode : Constant
Frame rate : 25.000 fps
Color space : YUV
Chroma subsampling : 4:2:0
Bit depth : 8 bits
Scan type : Progressive
Bits/(Pixel*Frame) : 0.100
Stream size : 2.71 GiB (94%)
Default : Yes
Forced : No
Color primaries : BT.709
Transfer characteristics : BT.709
Matrix coefficients : BT.709

Audio
ID : 2
Format : AC-3
Format/Info : Audio Coding 3
Mode extension : CM (complete main)
Format settings, Endianness : Big
Codec ID : A_AC3
Duration : 1h 22mn
Bit rate mode : Constant
Bit rate : 192 Kbps
Channel(s) : 2 channels
Channel positions : Front: L R
Sampling rate : 48.0 KHz
Bit depth : 16 bits
Compression mode : Lossy
Stream size : 113 MiB (4%)
Language : French
Default : Yes
Forced : No

Menu
00:00:00.000 : en:(01)00:00:00:000
00:08:03.280 : en:(02)00:08:03:280
00:14:02.160 : en:(03)00:14:02:160
00:26:08.040 : en:(04)00:26:08:040
00:40:55.320 : en:(05)00:40:55:320
00:48:49.280 : en:(06)00:48:49:280
00:58:21.560 : en:(07)00:58:21:560
01:09:06.080 : en:(08)01:09:06:080

Elinks:

ed2k linkLes loups dans la bergerie (Hervé Bromberger, 1960) BRRip VOSE ed2k link stats



Subtítulos castellanos de Arqlexdelcine en descarga directa: https://www.subdivx.com/X6XNTQ2MDA1X-le ... -1960.html
"La vida es en color, pero el blanco y negro es más realista"

Lola1962
Mensajes: 186
Registrado: Dom 11 Dic, 2016 16:34

Re: Les loups dans la bergerie (Hervé Bromberger, 1960) BRRip VOSE

Mensaje por Lola1962 » Lun 21 Oct, 2019 21:14

Gracias por compartirla

Avatar de Usuario
hector Glauco
Mensajes: 554
Registrado: Lun 10 Ago, 2015 14:13
Ubicación: En el Tarragonés y FDL2

Re: Les loups dans la bergerie (Hervé Bromberger, 1960) BRRip VOSE

Mensaje por hector Glauco » Mar 12 Ene, 2021 17:15

Esta no la he visto. Merci Hammett y Arqlexdelcine

Responder