The List of Adrian Messenger (John Huston, 1963) HD 1080p Dual SE

Publica y encuentra enlaces p2p de filmes hasta 1980 en esta sección.
Responder
santi
Mensajes: 1045
Registrado: Vie 17 Ene, 2003 01:00

The List of Adrian Messenger (John Huston, 1963) HD 1080p Dual SE

Mensaje por santi » Lun 19 Nov, 2018 23:07

El último de la lista (The List of Adrian Messenger) (John Huston, 1963)

Imagen
Imagen
[Filmaffinity | IMDb

Guion: Anthony Veiller (Novela: Philip MacDonald)
Música: Jerry Goldsmith
Fotografía: Joseph MacDonald (B&W)
Reparto: George C. Scott, Kirk Douglas, Jacques Roux, Dana Wynter, Clive Brook, Gladys Cooper, Herbert Marshall, Marcel Dalio, Tony Curtis, Burt Lancaster, Robert Mitchum, Frank Sinatra, John Merivale
Productora: Universal Pictures
Género: Intriga | Crimen

Sinopsis:
Un hombre, escritor, entrega a un amigo suyo, agente secreto retirado, una lista en la que figuran 10 nombres para que compruebe sus paraderos, sin darle más explicaciones. Cuando el escritor muere en un accidente aéreo, el agente se pondrá a investigar y comprobará que 6 nombres de la lista fallecieron por accidentes y empieza a sospechar que sean crímenes encubiertos. (FILMAFFINITY)



Gracias a quienes compartieron el BD.
Spoiler: mostrar
Dadas las (extrañas) circunstancias en las que actualmente parecemos movernos en el mundo p2p (en especial, en lo relativo a los trackers privados), de aquí en adelante haré "agradecimientos genéricos" a quienes compartieron la fuente original y no enlazaré a dicha fuente original en mis posts.
Disculpen las molestias
Detalles de la edición


Ripeo con esta configuración:

Código: Seleccionar todo

"C:\x264.exe" --preset veryslow --tune film --crf 18.0 --qcomp 0.62 --deblock -2:-2 --no-chroma-me --level 4.1 --output "C:\mi_ripeo.mkv" "C:\mi_script.avs"
Imagen
Imagen
Imagen
Imagen
Imagen
Imagen
Imagen
Imagen
Imagen
Imagen
Imagen
Imagen

Código: Seleccionar todo

Format : Matroska 
Format version : Version 4 
File size : 8.78 GiB 
Duration : 1 h 38 min 
Overall bit rate : 12.8 Mb/s 
Writing application : mkvmerge v28.2.0 ('The Awakening') 64-bit 
Writing library : libebml v1.3.6 + libmatroska v1.4.9 

Video 
ID : 1 
Format : AVC 
Format/Info : Advanced Video Codec 
Format profile : High@L4.1 
Format settings : CABAC / 4 Ref Frames 
Format settings, CABAC : Yes 
Format settings, RefFrames : 4 frames 
Codec ID : V_MPEG4/ISO/AVC 
Duration : 1 h 38 min 
Bit rate : 12.5 Mb/s 
Width : 1 920 pixels 
Height : 1 040 pixels 
Display aspect ratio : 1.85:1 
Frame rate mode : Constant 
Frame rate : 23.976 (24000/1001) FPS 
Color space : YUV 
Chroma subsampling : 4:2:0 
Bit depth : 8 bits 
Scan type : Progressive 
Bits/(Pixel*Frame) : 0.260 
Stream size : 8.54 GiB (97%) 
Writing library : x264 core 157 r2935 545de2f 
Encoding settings : cabac=1 / ref=4 / deblock=1:-2:-2 / analyse=0x3:0x133 / me=umh / subme=10 / psy=1 / psy_rd=1.00:0.15 / mixed_ref=1 / me_range=24 / chroma_me=0 / trellis=2 / 8x8dct=1 / cqm=0 / deadzone=21,11 / fast_pskip=1 / chroma_qp_offset=-3 / threads=6 / lookahead_threads=1 / sliced_threads=0 / nr=0 / decimate=1 / interlaced=0 / bluray_compat=0 / constrained_intra=0 / bframes=8 / b_pyramid=2 / b_adapt=2 / b_bias=0 / direct=3 / weightb=1 / open_gop=0 / weightp=2 / keyint=250 / keyint_min=23 / scenecut=40 / intra_refresh=0 / rc_lookahead=60 / rc=crf / mbtree=1 / crf=18.0 / qcomp=0.62 / qpmin=0 / qpmax=69 / qpstep=4 / ip_ratio=1.40 / aq=1:1.00 
Language : English 
Default : Yes 
Forced : No 

Audio #1 
ID : 2 
Format : AAC LC 
Format/Info : Advanced Audio Codec Low Complexity 
Codec ID : A_AAC-2 
Duration : 1 h 38 min 
Bit rate : 176 kb/s 
Channel(s) : 2 channels 
Channel layout : L R 
Sampling rate : 48.0 kHz 
Frame rate : 46.875 FPS (1024 SPF) 
Compression mode : Lossy 
Stream size : 123 MiB (1%) 
Language : English 
Writing library : qaac 2.67, CoreAudioToolbox 7.10.9.0
Encoding settings : qaac -V 127 --ignorelength --adts --no-delay -o
VBR min./avg./max. : 4 / 178 / 300 Kb/s. 
Duration.......... : 5885.141 sec., (1h. 38m. 5.141s.)
Default : Yes 
Forced : No 

Audio #2 
ID : 3 
Format : AAC LC 
Format/Info : Advanced Audio Codec Low Complexity 
Codec ID : A_AAC-2 
Duration : 1 h 38 min 
Bit rate : 162 kb/s 
Channel(s) : 2 channels 
Channel layout : L R 
Sampling rate : 48.0 kHz 
Frame rate : 46.875 FPS (1024 SPF) 
Compression mode : Lossy 
Stream size : 114 MiB (1%) 
Title : Doblaje para cines de 1963 
Language : Spanish 
Writing library : qaac 2.67, CoreAudioToolbox 7.10.9.0
Encoding settings : qaac -V 127 --ignorelength --adts --no-delay -o
VBR min./avg./max. : 6 / 165 / 363 Kb/s. 
Duration.......... : 5885.184 sec., (1h. 38m. 5.184s.)
Default : No 
Forced : No 

Text #1 
ID : 4 
Format : UTF-8 
Codec ID : S_TEXT/UTF8 
Codec ID/Info : UTF-8 Plain Text 
Duration : 1 h 36 min 
Bit rate : 54 b/s 
Count of elements : 1085 
Stream size : 38.7 KiB (0%) 
Language : Spanish 
Default : Yes 
Forced : No 

Text #2 
ID : 5 
Format : UTF-8 
Codec ID : S_TEXT/UTF8 
Codec ID/Info : UTF-8 Plain Text 
Duration : 1 h 33 min 
Bit rate : 68 b/s 
Count of elements : 1304 
Stream size : 46.5 KiB (0%) 
Language : English 
Default : No 
Forced : No 

Text #3 
ID : 6 
Format : UTF-8 
Codec ID : S_TEXT/UTF8 
Codec ID/Info : UTF-8 Plain Text 
Duration : 1 h 36 min 
Bit rate : 69 b/s 
Count of elements : 1417 
Stream size : 49.2 KiB (0%) 
Title : English SDH 
Language : English 
Default : No 
Forced : No 

Menu 
00:00:00.000 : :00:00:00.000 
00:10:00.600 : :00:10:00.600 
00:20:01.200 : :00:20:01.200 
00:30:01.800 : :00:30:01.800 
00:40:02.400 : :00:40:02.400 
00:50:03.000 : :00:50:03.000 
01:00:03.600 : :01:00:03.600 
01:10:04.200 : :01:10:04.200 
01:20:04.800 : :01:20:04.800 
01:30:05.400 : :01:30:05.400 
01:38:04.629 : :01:38:04.629




:arrow: BDRip Dual (V.O. - doblaje en castellano) 1080p, con subtítulos en español e inglés en el contenedor MKV (8.78 GBs)

:arrow: Subtítulos por separado
, por si alguien los necesita para... (106 KBs)


Los subtítulos en castellano son los de Marc27 (muchas gracias), sincronizados para este ripeo.




La pista de doblaje contiene el doblaje para su estreno en cines en España en 1963, con Jesús Nieto, Baltanás, Mari Angeles Herranz, Simón Ramírez y algunos ilustres más, así que los amigos del doblaje la disfrutarán. Como fuente se tomó un ripeo de la mula de Marc27, con los ajustes necesarios para este vídeo.

Enlaces relacionados en DXC:

El último de la lista (John Huston, 1963) DVDRip VOSE + AE
El Ultimo de la Lista (John Huston, 1963) SATRip Español
El Último de la Lista (John Huston, 1963) VHSRip Español





:arrow: Cómo buscar archivos en emule. Necesario para buscar lo anterior...





----------------------------------------------------


Imagen Imagen

Última versión del codec x264 (inglés) | Web en español sobre el codec x264
Manual de ripeo con x264 en línea de comandos (español) | Parámetros de codificación (inglés)
Contenedor Matroska (español) | Matroska en wikipedia (español): software de PC compatible, etc.
MKVToolnix, herramientas de edición para matroska (inglés) | Añadir cadenas de audio o subtítulos con MKVToolnix (español)
MKVExtractGui | Manual de extracción de cadenas de audio/vídeo/subtítulos en MKV (español)
Cómo crear BDRips MKV/x264 1080p o 1080p (español) | Guía avanzada para crear DVDRips MKV/x264 paso a paso (inglés)
------------------------------------------------------------------
Nota: Gordura de vídeo y plantilla-post a cargo del habitual de la plantilla, y laboriosa y artesana sincro del doblaje a cargo de este humilde escribidor, que esta vez ha tardado casi dos meses en parir (si llevaría trabajo :mrgreen: ).

Avatar de Usuario
Dardo
Arrow Thrower Clown
Mensajes: 16514
Registrado: Dom 19 Oct, 2003 02:00
Ubicación: Entre Encinas y Dolomías

Re: The List of Adrian Messenger (John Huston, 1963) HD 1080p Dual SE

Mensaje por Dardo » Mar 20 Nov, 2018 00:19

Vamos a ir pinchando que la noche es larga.

Gracias SantiR!!! :sonrisa:

ostrata
Mensajes: 2179
Registrado: Mié 24 Mar, 2010 17:29

Re: The List of Adrian Messenger (John Huston, 1963) HD 1080p Dual SE

Mensaje por ostrata » Mar 20 Nov, 2018 06:55

Gracias. :)

Saludos.

Avatar de Usuario
janca
Mensajes: 2174
Registrado: Dom 20 Dic, 2009 09:31

Re: The List of Adrian Messenger (John Huston, 1963) HD 1080p Dual SE

Mensaje por janca » Mar 20 Nov, 2018 07:03

Muchas gracias

Avatar de Usuario
Spanish Jhonny
Mensajes: 2912
Registrado: Mar 18 Sep, 2012 16:01

Re: The List of Adrian Messenger (John Huston, 1963) HD 1080p Dual SE

Mensaje por Spanish Jhonny » Mar 20 Nov, 2018 09:16

Muchas gracias ;)

Avatar de Usuario
paizoco
Mensajes: 2736
Registrado: Vie 21 Nov, 2003 01:00
Ubicación: Far West

Re: The List of Adrian Messenger (John Huston, 1963) HD 1080p Dual SE

Mensaje por paizoco » Mar 20 Nov, 2018 14:42

Pues es una de la filmografía de John Huston que no conozco, tratándose de él me interesa.
Y el ripeo, estupendo. Muchas gracias.

Tribulete
Mensajes: 19
Registrado: Sab 24 Mar, 2018 13:49

Re: The List of Adrian Messenger (John Huston, 1963) HD 1080p Dual SE

Mensaje por Tribulete » Vie 21 Dic, 2018 01:31

Como no todo va a ser pedir, y en una de mis búsquedas, como mejora, he encontrado este aporte de Adelon, lo añado al hilo.

El enlace para el audio con los tonos correctos. Al parecer suenan más graves de lo que debieran.

El.último.de.las.lista.(The.List.of.Adrian.Messenger).TONOS.CORRECTOS.por.Adelon.mp3

Espero que resulte interesante y de utilidad. Gracias a adelon por el trabajo.

Saludos.

Responder