Bluebeard's Eighth Wife (Ernst Lubitsch, 1938) HD 720p Dual SE

Publica y encuentra enlaces p2p de filmes hasta 1980 en esta sección.
Responder
Avatar de Usuario
DMMD
Mensajes: 1757
Registrado: Lun 27 Feb, 2012 14:16

Bluebeard's Eighth Wife (Ernst Lubitsch, 1938) HD 720p Dual SE

Mensaje por DMMD » Sab 10 Nov, 2018 23:02

Imagen


Imagen


La octava mujer de Barba Azul

Título original Bluebeard's Eighth Wife
Año 1938
Duración 80 min.
País Imagen
Dirección Ernst Lubitsch
Guion Charles Brackett, Billy Wilder (Teatro: Alfred Savoir)
Música Frederick Hollander, Werner R. Heymann
Fotografía Leo Tover (B&W)
Reparto
Gary Cooper, Claudette Colbert, David Niven, Edward Everett Horton, Elizabeth Patterson, Herman Bing, Franklin Pangborn, Armand Cortes, Rolfe Sedan, Lawrence Grant, Lionel Pape

Productora Paramount Pictures
Género Comedia | Comedia romántica. Comedia sofisticada
Sinopsis
Michael Brandon (Gary Cooper) es un millonario malcriado y mujeriego que ha tenido siete esposas, todas atraídas por su fortuna. En una tienda de la Riviera conoce a Nicole de Loiselle (Claudette Colbert), pero en un principio ella le rechaza. El caso es que Nicole, hija de una familia de nobles franceses venidos a menos, decide, a instancias de su padre, aceptar finalmente la proposición de matrimonio de Brandon, pero deja claro que lo hace sólo por su dinero... (FILMAFFINITY)


Vídeo:

- Encode a partir de la edición francesa del Bluray (Elephant Films).

- He aprovechado en el encode para quitar la sabana blanca que trae encima el bluray y darle algo mas de fuerza a las tonalidades negras y mejorar el contraste dentro de lo posible aunque suponga perder elementos de visualización en las zonas mas oscuras.

- Se aprecia que la imagen no se han limpiado digitalmente y se refleja en los puntos blancos, arañazos y rasguños.

- En general, aceptable restauración con un nivel de detalle muy correcto conservado un grano claro.

- Dejo una comparativa con la fuente de partida.

Imagen Imagen Imagen Imagen Imagen Imagen Imagen Imagen Imagen Imagen


Código: Seleccionar todo

General
Unique ID                   : 160551162861064760002743765359325800169 (0x78C9077AB3AC7498162F267E98A2E6E9)
Complete name               : D:\Incoming\1938-Bluebeard's.Eighth.Wife.BRx264.720p.AAC[DMMD].mkv
Format                      : Matroska
Format version              : Version 4 / Version 2
File size                   : 3.64 GiB
Duration                    : 1 h 25 min
Overall bit rate            : 6 089 kb/s
Movie name                  : 1938-Bluebeard's.Eighth.Wife.BRx264.720p.AAC[DMMD]
Encoded date                : UTC 2018-11-10 16:58:35
Writing application         : mkvmerge v27.0.0 ('Metropolis') 64-bit
Writing library             : libebml v1.3.6 + libmatroska v1.4.9
Attachments                 : 1 / 2

Video
ID                          : 1
Format                      : AVC
Format/Info                 : Advanced Video Codec
Format profile              : High@L4.1
Format settings             : CABAC / 11 Ref Frames
Format settings, CABAC      : Yes
Format settings, ReFrames   : 11 frames
Codec ID                    : V_MPEG4/ISO/AVC
Duration                    : 1 h 25 min
Bit rate                    : 5 781 kb/s
Width                       : 976 pixels
Height                      : 720 pixels
Display aspect ratio        : 4:3
Frame rate mode             : Constant
Frame rate                  : 23.976 (24000/1001) FPS
Color space                 : YUV
Chroma subsampling          : 4:2:0
Bit depth                   : 8 bits
Scan type                   : Progressive
Bits/(Pixel*Frame)          : 0.343
Stream size                 : 3.45 GiB (95%)
Title                       : Elephant Films
Writing library             : x264 core 152 r2851kMod ba24899
Encoding settings           : cabac=1 / ref=11 / deblock=1:-3:-3 / analyse=0x3:0x133 / me=umh / subme=11 / psy=1 / fade_compensate=0.00 / psy_rd=1.00:0.00 / mixed_ref=1 / me_range=64 / chroma_me=1 / trellis=2 / 8x8dct=1 / cqm=0 / deadzone=21,11 / fast_pskip=0 / chroma_qp_offset=-2 / threads=6 / lookahead_threads=1 / sliced_threads=0 / nr=0 / decimate=0 / interlaced=0 / bluray_compat=0 / constrained_intra=0 / bframes=8 / b_pyramid=2 / b_adapt=2 / b_bias=0 / direct=3 / weightb=1 / open_gop=0 / weightp=2 / keyint=250 / keyint_min=23 / scenecut=40 / intra_refresh=0 / rc=crf / mbtree=0 / crf=19.0000 / qcomp=0.60 / qpmin=0 / qpmax=69 / qpstep=4 / ip_ratio=1.40 / pb_ratio=1.30 / aq=3:0.70
Language                    : English
Default                     : Yes
Forced                      : No

Audio #1
ID                          : 2
Format                      : AAC LC
Format/Info                 : Advanced Audio Codec Low Complexity
Codec ID                    : A_AAC-2
Duration                    : 1 h 25 min
Bit rate                    : 126 kb/s
Channel(s)                  : 2 channels
Channel layout              : L R
Sampling rate               : 48.0 kHz
Frame rate                  : 46.875 FPS (1024 SPF)
Compression mode            : Lossy
Delay relative to video     : 9 ms
Stream size                 : 77.0 MiB (2%)
Language                    : English
Default                     : Yes
Forced                      : No

Audio #2
ID                          : 3
Format                      : AAC LC
Format/Info                 : Advanced Audio Codec Low Complexity
Codec ID                    : A_AAC-2
Duration                    : 1 h 25 min
Bit rate                    : 181 kb/s
Channel(s)                  : 2 channels
Channel layout              : L R
Sampling rate               : 48.0 kHz
Frame rate                  : 46.875 FPS (1024 SPF)
Compression mode            : Lossy
Delay relative to video     : 9 ms
Stream size                 : 110 MiB (3%)
Title                       : Doblaje clásico
Language                    : Spanish
Default                     : No
Forced                      : No

Text #1
ID                          : 4
Format                      : UTF-8
Codec ID                    : S_TEXT/UTF8
Codec ID/Info               : UTF-8 Plain Text
Duration                    : 1 h 24 min
Bit rate                    : 69 b/s
Count of elements           : 1358
Stream size                 : 43.0 KiB (0%)
Language                    : Spanish
Default                     : Yes
Forced                      : No

Text #2
ID                          : 5
Format                      : UTF-8
Codec ID                    : S_TEXT/UTF8
Codec ID/Info               : UTF-8 Plain Text
Duration                    : 2 s 848 ms
Bit rate                    : 64 b/s
Count of elements           : 1
Stream size                 : 23.0 Bytes (0%)
Title                       : Forzados
Language                    : Spanish
Default                     : No
Forced                      : No

Text #3
ID                          : 6
Format                      : UTF-8
Codec ID                    : S_TEXT/UTF8
Codec ID/Info               : UTF-8 Plain Text
Duration                    : 1 h 22 min
Bit rate                    : 92 b/s
Count of elements           : 1532
Stream size                 : 56.2 KiB (0%)
Language                    : English
Default                     : No
Forced                      : No

Menu
00:00:00.000                : :Chapter 1
00:05:11.033                : :Chapter 2
00:11:14.033                : :Chapter 3
00:18:57.366                : :Chapter 4
00:26:00.366                : :Chapter 5
00:30:20.366                : :Chapter 6
00:34:09.866                : :Chapter 7
00:39:06.866                : :Chapter 8
00:43:25.700                : :Chapter 9
00:48:01.367                : :Chapter 10
00:51:48.034                : :Chapter 11
00:56:01.701                : :Chapter 12
01:01:40.134                : :Chapter 13
01:04:10.134                : :Chapter 14
01:08:52.634                : :Chapter 15
01:12:23.800                : :Chapter 16
01:16:33.966                : :Chapter 17
01:20:37.299                : :Chapter 18

Imagen


Encode 720p Vs Dvd (Ntsc) Vs Dvd (Pal)

Imagen
Imagen
Imagen




Audio y subtitulos:

- Para la V.O. audio AAC, pasado del Blu-ray. (DTS-HD Master Audio 2.0)

- Para la sincro he usado el audio que compartió theycame2001 "doblaje clásico" (infinitas gracias por compartirlo) y pasado a AAC.

- La sincro no ha sido de las llamadas fáciles, ha dado su guerra a la hora de ajustarla.

- Incluye subtitulos en español e ingleses extraídos y sincronizados del dvd pal y ntsc respectivamente.


CAPTURAS

Imagen
Imagen
Imagen
Imagen
Imagen
Imagen
Imagen
Imagen


Enlaces de descarga

ed2k link1938-Bluebeard's.Eighth.Wife.BRx264.720p.AAC(DMMD).mkv ed2k link stats

Imagen

Avatar de Usuario
cinefilototal
Mensajes: 99
Registrado: Jue 02 Mar, 2017 12:05

Re: Bluebeard's Eighth Wife (Ernst Lubitsch, 1938) HD 720p Dual SE

Mensaje por cinefilototal » Sab 10 Nov, 2018 23:25

¡Muchísismas gracias DMMD y theycame, esta es una de mis favoritas comedias de los años 30!.

Avatar de Usuario
paizoco
Mensajes: 2787
Registrado: Vie 21 Nov, 2003 01:00
Ubicación: Far West

Re: Bluebeard's Eighth Wife (Ernst Lubitsch, 1938) HD 720p Dual SE

Mensaje por paizoco » Sab 10 Nov, 2018 23:48

Me apunto, muchas gracias otra vez.

Avatar de Usuario
Spanish Jhonny
Mensajes: 3045
Registrado: Mar 18 Sep, 2012 16:01

Re: Bluebeard's Eighth Wife (Ernst Lubitsch, 1938) HD 720p Dual SE

Mensaje por Spanish Jhonny » Dom 11 Nov, 2018 00:32

Magnífica
Muchas gracias DMMD :plas: :plas:

ostrata
Mensajes: 2285
Registrado: Mié 24 Mar, 2010 17:29

Re: Bluebeard's Eighth Wife (Ernst Lubitsch, 1938) HD 720p Dual SE

Mensaje por ostrata » Dom 11 Nov, 2018 08:31

Gracias. :)

Saludos.

Avatar de Usuario
xomorroak
Mensajes: 44
Registrado: Mié 29 Nov, 2017 21:22

Re: Bluebeard's Eighth Wife (Ernst Lubitsch, 1938) HD 720p Dual SE

Mensaje por xomorroak » Dom 11 Nov, 2018 08:43

:plas: Muchísimas gracias :plas:

jmog
Mensajes: 972
Registrado: Mié 06 Mar, 2013 23:22

Re: Bluebeard's Eighth Wife (Ernst Lubitsch, 1938) HD 720p Dual SE

Mensaje por jmog » Dom 11 Nov, 2018 14:50

Muchas gracias DMMD :plas: :plas: :plas:

Avatar de Usuario
rcortijo
Mensajes: 737
Registrado: Mié 27 Ago, 2003 02:00

Re: Bluebeard's Eighth Wife (Ernst Lubitsch, 1938) HD 720p Dual SE

Mensaje por rcortijo » Dom 11 Nov, 2018 14:56

Muchas gracias, DMMD.

Avatar de Usuario
Jacob
Exprópiese
Mensajes: 9821
Registrado: Jue 01 Jul, 2004 02:00
Ubicación: Where no one has gone before!

Re: Bluebeard's Eighth Wife (Ernst Lubitsch, 1938) HD 720p Dual SE

Mensaje por Jacob » Dom 11 Nov, 2018 17:54

La volví a ver hace poco así que no me apunto, pero agradezco el ripeo a DMMD porque es una muy buena película.

Abrazos.

joramor
Mensajes: 1678
Registrado: Vie 05 Nov, 2010 19:55

Re: Bluebeard's Eighth Wife (Ernst Lubitsch, 1938) HD 720p Dual SE

Mensaje por joramor » Dom 11 Nov, 2018 19:22

Muchas gracias DMMD. Salu2.

kaski
Mensajes: 72
Registrado: Vie 07 Jun, 2013 20:43

Re: Bluebeard's Eighth Wife (Ernst Lubitsch, 1938) HD 720p Dual SE

Mensaje por kaski » Lun 12 Nov, 2018 15:42

Muchísimas gracias.

Avatar de Usuario
WalterBurns
Mensajes: 1194
Registrado: Dom 11 Oct, 2015 15:08

Re: Bluebeard's Eighth Wife (Ernst Lubitsch, 1938) HD 720p Dual SE

Mensaje por WalterBurns » Dom 18 Nov, 2018 18:42

Gracias por compartirla.

Avatar de Usuario
mith34
Mensajes: 171
Registrado: Dom 10 Ene, 2010 13:10
Ubicación: En el desierto

Re: Bluebeard's Eighth Wife (Ernst Lubitsch, 1938) HD 720p Dual SE

Mensaje por mith34 » Lun 19 Nov, 2018 22:16

Muchas gracias DMMD :plas: :plas: , aprovecharé este ripeo para ver la película por primera vez.

Un saludo.

Avatar de Usuario
Viamonte
Mensajes: 116
Registrado: Mar 11 May, 2010 05:33
Ubicación: En el medio del G20

Re: Bluebeard's Eighth Wife (Ernst Lubitsch, 1938) HD 720p Dual SE

Mensaje por Viamonte » Dom 25 Nov, 2018 01:36

Me sumo. Muchas gracias DMMD y theycame :plas: :plas: :plas:

Avatar de Usuario
jomime
Mensajes: 609
Registrado: Vie 02 Mar, 2012 13:27

Re: Bluebeard's Eighth Wife (Ernst Lubitsch, 1938) HD 720p Dual SE

Mensaje por jomime » Dom 25 Nov, 2018 09:02

Mmmmmmmmmmmm ... comedia sofisticada y jomime no parece un buen emparejamiento :mrgreen: :twisted: :bigrazz:

Avatar de Usuario
Dardo
Arrow Thrower Clown
Mensajes: 16733
Registrado: Dom 19 Oct, 2003 02:00
Ubicación: Entre Encinas y Dolomías

Re: Bluebeard's Eighth Wife (Ernst Lubitsch, 1938) HD 720p Dual SE

Mensaje por Dardo » Dom 25 Nov, 2018 09:14

jomime escribió:Mmmmmmmmmmmm ... comedia sofisticada y jomime no parece un buen emparejamiento :mrgreen: :twisted: :bigrazz:
Yo estaba esperando por jomi para empa...digo para pinchar.

Grande D :sonrisa:

Avatar de Usuario
BRussell6
Mensajes: 166
Registrado: Jue 09 May, 2013 15:51

Re: Bluebeard's Eighth Wife (Ernst Lubitsch, 1938) HD 720p Dual SE

Mensaje por BRussell6 » Sab 16 Ene, 2021 03:58

Para el que tenga curiosidad, en este vídeo del archivo de RTVE aparece un fragmento de la película con el doblaje de 1971 y tb aparece un fragmento de los Mares de China con el doblaje de Cine de 1951, o sea, con Rafael Luis Calvo doblando a Clark Gable. Es un doblaje que hoy día solo se haya en manos de algunos pocos coleccionistas.
https://www.rtve.es/alacarta/videos/los ... a/3755025/

Responder