The Cariboo Trail (Edwin L. Marin, 1949) HD 720p VOSE

Publica y encuentra enlaces p2p de filmes hasta 1980 en esta sección.
Avatar de Usuario
firejuice

Mensajes: 174
Registrado: Dom 14 Oct, 2012 17:10

The Cariboo Trail (Edwin L. Marin, 1949) HD 720p VOSE

Mensajepor firejuice » Jue 08 Mar, 2018 15:17

The Cariboo Trail (Edwin L. Marin, 1949)

Imagen

Año de producción: 1949
País: Imagen
Dirección: Edwin L. Marin
Intérpretes: Randolph Scott, George 'Gabby' Hayes, Victor Jory, Bill Williams, Karin Booth
Guión: Frank Gruber (Historia: John Rhodes Sturdy)
Música: Paul Sawtell
Fotografía: Fred Jackman Jr.
Duración: 1 hora 23 minutos.
Género: Western

Obligado por las circunstancias, el ganadero Jim Redfern emprende el camino que conduce al Cariboo, donde espera encontrar el oro del que habla todo el mundo. En su viaje se enfrentará a atracos, emboscadas, ataques de los indios, pero, sobre todo, tendrá que vérselas con el todopoderoso Frank Walhs, dueño y señor del territorio. (FILMAFFINITY)

Código: Seleccionar todo

Format                                   : Matroska
Format version                           : Version 4 / Version 2
File size                                : 2.53 GiB
Duration                                 : 1h 23mn
Overall bit rate                         : 4 363 Kbps
Encoded date                             : UTC 2018-03-08 14:06:24
Writing application                      : mkvmerge v6.5.0 ('Isn't she lovely') built on Oct 20 2013 12:50:05
Writing library                          : libebml v1.3.0 + libmatroska v1.4.1

Video
ID                                       : 1
Format                                   : AVC
Format/Info                              : Advanced Video Codec
Format profile                           : High@L4.1
Format settings, CABAC                   : Yes
Format settings, ReFrames                : 12 frames
Codec ID                                 : V_MPEG4/ISO/AVC
Duration                                 : 1h 23mn
Bit rate                                 : 3 636 Kbps
Width                                    : 952 pixels
Height                                   : 720 pixels
Display aspect ratio                     : 4:3
Frame rate mode                          : Constant
Frame rate                               : 23.976 fps
Color space                              : YUV
Chroma subsampling                       : 4:2:0
Bit depth                                : 8 bits
Scan type                                : Progressive
Bits/(Pixel*Frame)                       : 0.221
Stream size                              : 2.11 GiB (83%)
Writing library                          : x264 core 129 r2245+729M 1a52e03
Encoding settings                        : cabac=1 / ref=12 / deblock=1:-1:-1 / analyse=0x3:0x133 / me=umh / subme=10 / psy=1 / fade_compensate=0.00 / psy_rd=1.00:0.15 / mixed_ref=1 / me_range=24 / chroma_me=1 / trellis=2 / 8x8dct=1 / cqm=0 / deadzone=21,11 / fast_pskip=1 / chroma_qp_offset=-3 / threads=6 / lookahead_threads=1 / sliced_threads=0 / nr=0 / decimate=1 / interlaced=0 / bluray_compat=0 / constrained_intra=0 / fgo=0 / bframes=8 / b_pyramid=2 / b_adapt=2 / b_bias=0 / direct=3 / weightb=1 / open_gop=0 / weightp=2 / keyint=250 / keyint_min=23 / scenecut=40 / intra_refresh=0 / rc_lookahead=60 / rc=crf / mbtree=1 / crf=19.0 / qcomp=0.60 / qpmin=0 / qpmax=69 / qpstep=4 / ip_ratio=1.40 / aq=1:1.00
Language                                 : English
Default                                  : Yes
Forced                                   : No

Audio
ID                                       : 2
Format                                   : AC-3
Format/Info                              : Audio Coding 3
Mode extension                           : CM (complete main)
Format settings, Endianness              : Big
Codec ID                                 : A_AC3
Duration                                 : 1h 23mn
Bit rate mode                            : Constant
Bit rate                                 : 640 Kbps
Channel(s)                               : 2 channels
Channel positions                        : Front: L R
Sampling rate                            : 48.0 KHz
Bit depth                                : 16 bits
Compression mode                         : Lossy
Stream size                              : 381 MiB (15%)
Default                                  : Yes
Forced                                   : No

Text
ID                                       : 3
Format                                   : UTF-8
Codec ID                                 : S_TEXT/UTF8
Codec ID/Info                            : UTF-8 Plain Text
Default                                  : Yes
Forced                                   : No



Imagen
Imagen
Imagen
Imagen

:arrow: the.cariboo.trail.1949.720p.bluray.ac3.mkv

larigan

Mensajes: 392
Registrado: Dom 15 Nov, 2015 17:00

Re: The Cariboo Trail (Edwin L. Marin, 1949) HD 720p VOSE

Mensajepor larigan » Jue 08 Mar, 2018 15:55

Graaaa...cias

Avatar de Usuario
paizoco

Mensajes: 2383
Registrado: Vie 21 Nov, 2003 01:00
Ubicación: Far West

Re: The Cariboo Trail (Edwin L. Marin, 1949) HD 720p VOSE

Mensajepor paizoco » Jue 08 Mar, 2018 17:01

Me apunto, muchas gracias firejuice

dilsondefreitas

Mensajes: 31
Registrado: Sab 10 Ago, 2013 15:19

Re: The Cariboo Trail (Edwin L. Marin, 1949) HD 720p VOSE

Mensajepor dilsondefreitas » Jue 08 Mar, 2018 17:47

gtato por este novo

dilsondefreitas

Mensajes: 31
Registrado: Sab 10 Ago, 2013 15:19

Re: The Cariboo Trail (Edwin L. Marin, 1949) HD 720p VOSE

Mensajepor dilsondefreitas » Jue 08 Mar, 2018 17:48

como consigo o link?
no emule não consegui achar

Avatar de Usuario
janca

Mensajes: 1949
Registrado: Dom 20 Dic, 2009 09:31

Re: The Cariboo Trail (Edwin L. Marin, 1949) HD 720p VOSE

Mensajepor janca » Jue 08 Mar, 2018 18:17

Muchas gracias firejuice

Leonizio

Mensajes: 2
Registrado: Sab 25 May, 2013 19:43

Re: The Cariboo Trail (Edwin L. Marin, 1949) HD 720p VOSE

Mensajepor Leonizio » Jue 08 Mar, 2018 22:38

Otimo western obrigado

Avatar de Usuario
Jacob
Exprópiese

Mensajes: 9042
Registrado: Jue 01 Jul, 2004 02:00
Ubicación: Where no one has gone before!

Re: The Cariboo Trail (Edwin L. Marin, 1949) HD 720p VOSE

Mensajepor Jacob » Vie 09 Mar, 2018 02:07

dilsondefreitas escribió:como consigo o link?
no emule não consegui achar

Ahí va: :wink:

the.cariboo.trail.1949.720p.bluray.ac3.mkv [2.53 Gb] [Info]

Avatar de Usuario
miguel_HammerFilms

Mensajes: 1215
Registrado: Vie 18 May, 2007 11:23

Re: The Cariboo Trail (Edwin L. Marin, 1949) HD 720p VOSE

Mensajepor miguel_HammerFilms » Vie 09 Mar, 2018 12:21

Muchas gracias firejuice :D
Imagen

Avatar de Usuario
carrido

Mensajes: 282
Registrado: Mié 19 Feb, 2014 15:58
Ubicación: Freedonia

Re: The Cariboo Trail (Edwin L. Marin, 1949) HD 720p VOSE

Mensajepor carrido » Sab 10 Mar, 2018 13:16

Muchísimas gracias firejuice;otro de esos sensacionales Westerns clásicos con el olvidado Randolph Scott!!!!.
Carrido

hrma

Mensajes: 2
Registrado: Mar 15 Abr, 2014 02:27

Re: The Cariboo Trail (Edwin L. Marin, 1949) HD 720p VOSE

Mensajepor hrma » Lun 12 Mar, 2018 01:22

gracias

ostrata

Mensajes: 1344
Registrado: Mié 24 Mar, 2010 17:29

Re: The Cariboo Trail (Edwin L. Marin, 1949) HD 720p VOSE

Mensajepor ostrata » Lun 12 Mar, 2018 06:44

Gracias. :)

Saludos.

elmajete

Mensajes: 873
Registrado: Vie 18 May, 2007 22:05

Re: The Cariboo Trail (Edwin L. Marin, 1949) HD 720p VOSE

Mensajepor elmajete » Lun 12 Mar, 2018 10:57

Muchas gracias :plas: :plas: :plas:

Avatar de Usuario
WalterBurns

Mensajes: 904
Registrado: Dom 11 Oct, 2015 15:08

Re: The Cariboo Trail (Edwin L. Marin, 1949) HD 720p VOSE

Mensajepor WalterBurns » Sab 17 Mar, 2018 00:15

Gracias por compartirla.


Volver a “Cine Clásico”

¿Quién está conectado?

Usuarios navegando por este Foro: Ahrefs [Bot] y 4 invitados