Never Take Sweets from a Stranger (Cyril Frankel, 1960) HD 1080p VOSE

Publica y encuentra enlaces p2p de filmes hasta 1980 en esta sección.
Avatar de Usuario
Dardo
Arrow Thrower Clown

Mensajes: 15902
Registrado: Dom 19 Oct, 2003 02:00
Ubicación: Entre Encinas y Dolomías

Never Take Sweets from a Stranger (Cyril Frankel, 1960) HD 1080p VOSE

Mensajepor Dardo » Jue 08 Mar, 2018 11:15

Nunca aceptes dulces de un extraño (Never Take Sweets from a Stranger) (Never Take Candy from a Stranger) (Cyril Frankel, 1960)

Imagen
Imagen
Filmaffinity | IMDb

Guion: John Hunter (Obra: Roger Garis)
Música: Elisabeth Lutyens
Fotografía: Freddie Francis (B&W)
Reparto: Gwen Watford, Patrick Allen, Felix Aylmer, Niall MacGinnis, Alison Leggatt, Bill Nagy, MacDonald Parke, Michael Gwynn, Janina Faye, Frances Green, Estelle Brody, James Dyrenforth, Robert Arden, Vera Cook, Budd Knapp
Productora: Hammer Film Productions
Género: Drama | Thriller | Drama judicial | Abusos sexuales

Sinopsis:
Jean Carter, la hija de 11 años de una familia que recién se ha mudado a un pequeño pueblo de Canadá, dice haber sido corrompida por un hombre que le ofreció caramelos. El viejo del que hablaba la niña resulta ser el Sr. Olderberry, abuelo de la familia más antigua, arraigada y poderosa de la ciudad. Aunque los padres están convencidos en denunciar el caso a la policía, el proceso judicial no será tan sencillo como esperaban. (FILMAFFINITY)



Gracias a quienes compartieron el BD.
Spoiler: mostrar
Dadas las (extrañas) circunstancias en las que actualmente parecemos movernos en el mundo p2p (en especial, en lo relativo a los trackers privados), de aquí en adelante haré "agradecimientos genéricos" a quienes compartieron la fuente original y no enlazaré a dicha fuente original en mis posts.
Disculpen las molestias


Detalles de la edición


Ripeo con esta configuración:

Código: Seleccionar todo

"C:\x264.exe" --preset veryslow --tune film --crf 19.0 --no-chroma-me --level 4.1 --output "C:\mi_ripeo.mkv" "C:\mi_script.avs"


Imagen
Imagen
Imagen
Imagen
Imagen
Imagen
Imagen
Imagen
Imagen
Imagen
Imagen
Imagen


Código: Seleccionar todo

Format : Matroska
Format version : Version 4 / Version 2
File size : 10.7 GiB
Duration : 1 h 21 min
Overall bit rate : 18.8 Mb/s
Writing application : mkvmerge v21.0.0 ('Tardigrades Will Inherit The Earth') 64-bit
Writing library : libebml v1.3.5 + libmatroska v1.4.8

Video
ID : 1
Format : AVC
Format/Info : Advanced Video Codec
Format profile : High@L4.1
Format settings : CABAC / 5 Ref Frames
Format settings, CABAC : Yes
Format settings, RefFrames : 5 frames
Codec ID : V_MPEG4/ISO/AVC
Duration : 1 h 21 min
Bit rate : 18.7 Mb/s
Width : 1 918 pixels
Height : 816 pixels
Display aspect ratio : 2.35:1
Frame rate mode : Constant
Frame rate : 23.976 (24000/1001) FPS
Color space : YUV
Chroma subsampling : 4:2:0
Bit depth : 8 bits
Scan type : Progressive
Bits/(Pixel*Frame) : 0.498
Stream size : 10.6 GiB (99%)
Writing library : x264 core 155 r2901 7d0ff22
Encoding settings : cabac=1 / ref=5 / deblock=1:-1:-1 / analyse=0x3:0x133 / me=umh / subme=10 / psy=1 / psy_rd=1.00:0.15 / mixed_ref=1 / me_range=24 / chroma_me=0 / trellis=2 / 8x8dct=1 / cqm=0 / deadzone=21,11 / fast_pskip=1 / chroma_qp_offset=-3 / threads=6 / lookahead_threads=1 / sliced_threads=0 / nr=0 / decimate=1 / interlaced=0 / bluray_compat=0 / constrained_intra=0 / bframes=8 / b_pyramid=2 / b_adapt=2 / b_bias=0 / direct=3 / weightb=1 / open_gop=0 / weightp=2 / keyint=250 / keyint_min=23 / scenecut=40 / intra_refresh=0 / rc_lookahead=60 / rc=crf / mbtree=1 / crf=19.0 / qcomp=0.60 / qpmin=0 / qpmax=69 / qpstep=4 / ip_ratio=1.40 / aq=1:1.00
Language : English
Default : Yes
Forced : No

Audio
ID : 2
Format : AAC
Format/Info : Advanced Audio Codec
Format profile : LC
Codec ID : A_AAC-2
Duration : 1 h 21 min
Bit rate : 93.7 kb/s
Channel(s) : 1 channel
Channel positions : Front: C
Sampling rate : 48.0 kHz
Frame rate : 46.875 FPS (1024 SPF)
Compression mode : Lossy
Stream size : 54.4 MiB (0%)
Language : English
Writing library : qaac 2.65, CoreAudioToolbox 7.10.9.0
Encoding settings : qaac -V 127 --ignorelength --adts --no-delay -o
VBR min./avg./max. : 4 / 96 / 185 Kb/s.
Duration.......... : 4870.827 sec., (1h. 21m. 10.827s.)
Default : Yes
Forced : No

Text #1
ID : 3
Format : UTF-8
Codec ID : S_TEXT/UTF8
Codec ID/Info : UTF-8 Plain Text
Duration : 1 h 20 min
Bit rate : 86 b/s
Count of elements : 1429
Stream size : 51.5 KiB (0%)
Language : Spanish
Default : Yes
Forced : No

Text #2
ID : 4
Format : UTF-8
Codec ID : S_TEXT/UTF8
Codec ID/Info : UTF-8 Plain Text
Duration : 1 h 19 min
Bit rate : 86 b/s
Count of elements : 1455
Stream size : 50.2 KiB (0%)
Language : English
Default : No
Forced : No

Text #3
ID : 5
Format : UTF-8
Codec ID : S_TEXT/UTF8
Codec ID/Info : UTF-8 Plain Text
Duration : 1 h 20 min
Bit rate : 86 b/s
Count of elements : 1494
Stream size : 51.0 KiB (0%)
Title : English SDH
Language : English
Default : No
Forced : No

Text #4
ID : 6
Format : VobSub
Muxing mode : zlib
Codec ID : S_VOBSUB
Codec ID/Info : Picture based subtitle format used on DVDs
Duration : 1 h 20 min
Bit rate : 13.7 kb/s
Count of elements : 1495
Stream size : 7.94 MiB (0%)
Title : English Vobsubs (SDH)
Language : English
Default : No
Forced : No

Menu
00:00:00.000 : en:00:00:00.000
00:09:46.377 : en:00:09:46.377
00:17:21.791 : en:00:17:21.791
00:24:20.751 : en:00:24:20.751
00:31:39.689 : en:00:31:39.689
00:38:22.592 : en:00:38:22.592
00:45:42.073 : en:00:45:42.073
00:54:21.550 : en:00:54:21.550
00:58:00.560 : en:00:58:00.560
01:01:44.451 : en:01:01:44.451
01:10:44.699 : en:01:10:44.699
01:14:09.570 : en:01:14:09.570
01:18:46.722 : en:01:18:46.722





:arrow: BDRip V.O. 1080p, con subtítulos en español e inglés en el contenedor MKV (10.66 GBs)

:arrow: Subtítulos por separado
, por si alguien los necesita para... (115 KBs)



Los subtítulos en castellano son los de:
Thelion, robertico, Hank Quinlan, Professor Keller, Miguel_HammerFilms, Tennison y Hammett en la traducción y Tennison en la revisión (o sea, del grupo de traducción de Noirestyle).
Muchas gracias a todos.
Mínimamente corregidos y resincronizados para este ripeo.

Never Take Sweets from a Stranger (Cyril Frankel, 1960) DVDRip VOSE



:arrow: Cómo buscar archivos en emule. Necesario para buscar lo anterior...





----------------------------------------------------


Imagen Imagen

Última versión del codec x264 (inglés) | Web en español sobre el codec x264
Manual de ripeo con x264 en línea de comandos (español) | Parámetros de codificación (inglés)
Contenedor Matroska (español) | Matroska en wikipedia (español): software de PC compatible, etc.
MKVToolnix, herramientas de edición para matroska (inglés) | Añadir cadenas de audio o subtítulos con MKVToolnix (español)
MKVExtractGui | Manual de extracción de cadenas de audio/vídeo/subtítulos en MKV (español)
Cómo crear BDRips MKV/x264 1080p o 1080p (español) | Guía avanzada para crear DVDRips MKV/x264 paso a paso (inglés)

Avatar de Usuario
paizoco

Mensajes: 2412
Registrado: Vie 21 Nov, 2003 01:00
Ubicación: Far West

Re: Never Take Sweets from a Stranger (Cyril Frankel, 1960) BDRip 1080p VO SE

Mensajepor paizoco » Jue 08 Mar, 2018 11:17

Me apunto, muchas gracias.
Pero aún no me aparece en el buscador de la mula.

Avatar de Usuario
Dardo
Arrow Thrower Clown

Mensajes: 15902
Registrado: Dom 19 Oct, 2003 02:00
Ubicación: Entre Encinas y Dolomías

Re: Never Take Sweets from a Stranger (Cyril Frankel, 1960) BDRip 1080p VO SE

Mensajepor Dardo » Jue 08 Mar, 2018 11:32

paizoco escribió:Me apunto, muchas gracias.
Pero aún no me aparece en el buscador de la mula.


Spoiler: mostrar
Never.Take.Sweets.from.a.Stranger.1960.BDRip.x264.1080p.AAC.mkv [10.66 Gb] [Info]

Never.Take.Sweets.from.a.Stranger.1960.BDRip.x264.1080p.AAC.zip [114.7 Kb] [Info]


[ Añade 2 enlaces a eMule ]

Avatar de Usuario
janca

Mensajes: 1975
Registrado: Dom 20 Dic, 2009 09:31

Re: Never Take Sweets from a Stranger (Cyril Frankel, 1960) BDRip 1080p VOSE

Mensajepor janca » Jue 08 Mar, 2018 18:19

Muchas gracias equipo

ostrata

Mensajes: 1468
Registrado: Mié 24 Mar, 2010 17:29

Re: Never Take Sweets from a Stranger (Cyril Frankel, 1960) BDRip 1080p VOSE

Mensajepor ostrata » Jue 08 Mar, 2018 19:37

Gracias. :)

Saludos.

jvaldu

Mensajes: 43
Registrado: Dom 25 Oct, 2015 12:52

Re: Never Take Sweets from a Stranger (Cyril Frankel, 1960) HD 1080p VOSE

Mensajepor jvaldu » Vie 09 Mar, 2018 22:58

Muchas gracias por este aporte.

Salu2.

Avatar de Usuario
etayo

Mensajes: 1121
Registrado: Lun 12 May, 2003 02:00
Ubicación: Por ahí

Re: Never Take Sweets from a Stranger (Cyril Frankel, 1960) HD 1080p VOSE

Mensajepor etayo » Lun 12 Mar, 2018 17:03

Muchas gracias

Avatar de Usuario
elmajete

Mensajes: 885
Registrado: Vie 18 May, 2007 22:05

Re: Never Take Sweets from a Stranger (Cyril Frankel, 1960) HD 1080p VOSE

Mensajepor elmajete » Mar 13 Mar, 2018 18:11

Muchas gracias Dardo a ver si se mueve ya que la descarga va con poca velocidad :plas: :plas: :plas:

Avatar de Usuario
Dardo
Arrow Thrower Clown

Mensajes: 15902
Registrado: Dom 19 Oct, 2003 02:00
Ubicación: Entre Encinas y Dolomías

Re: Never Take Sweets from a Stranger (Cyril Frankel, 1960) HD 1080p VOSE

Mensajepor Dardo » Mar 13 Mar, 2018 18:59

elmajete escribió:Muchas gracias Dardo a ver si se mueve ya que la descarga va con poca velocidad :plas: :plas: :plas:


Tendré que comprobar que mi mayordomo no está por ahí despistado... :twisted:

larigan

Mensajes: 407
Registrado: Dom 15 Nov, 2015 17:00

Re: Never Take Sweets from a Stranger (Cyril Frankel, 1960) HD 1080p VOSE

Mensajepor larigan » Mar 13 Mar, 2018 23:06

gracias


Volver a “Cine Clásico”

¿Quién está conectado?

Usuarios navegando por este Foro: Yisou [Spider] y 3 invitados