Woman They Almost Lynched (Allan Dwan, 1953) HD 720p VOSE

Publica y encuentra enlaces p2p de filmes hasta 1980 en esta sección.
Avatar de Usuario
firejuice

Mensajes: 174
Registrado: Dom 14 Oct, 2012 17:10

Woman They Almost Lynched (Allan Dwan, 1953) HD 720p VOSE

Mensajepor firejuice » Lun 05 Mar, 2018 13:39

Woman they almost lynched (Allan Dwan, 1953)

Imagen

Año de producción: 1953
País: Imagen
Dirección: Allan Dwan
Intérpretes: John Lund, Brian Donlevy, Audrey Totter, Joan Leslie, Ben Cooper, Nina Varela, Jim Davis, Reed Hadley, Ann Savage, Virginia Christine, Marilyn Lindsey, Nacho Galindo, Ellen Corby, Minerva Urecal, Richard Simmons, Gordon Jones, James Brown
Guión: Steve Fisher (Historia: Michael Fessier)
Música: Stanley Wilson
Fotografía: Reggie Lanning (B&W)
Duración: 1 hora 30 minutos.
Género: Western

Kate es la esposa de un malvado soldado confederado que traba buena amistad con Sally, la hermana de uno de sus ex amantes. Cuando Sally es engatusada amorosamente por un espía sureño, Kate deberá hacer todo lo posible por salvarla de un peligroso complot.

Código: Seleccionar todo

Format                                   : Matroska
Format version                           : Version 4 / Version 2
File size                                : 4.27 GiB
Duration                                 : 1h 30mn
Overall bit rate                         : 6 748 Kbps
Encoded date                             : UTC 2018-02-18 13:30:50
Writing application                      : mkvmerge v6.5.0 ('Isn't she lovely') built on Oct 20 2013 12:50:05
Writing library                          : libebml v1.3.0 + libmatroska v1.4.1

Video
ID                                       : 1
Format                                   : AVC
Format/Info                              : Advanced Video Codec
Format profile                           : High@L4.1
Format settings, CABAC                   : Yes
Format settings, ReFrames                : 11 frames
Codec ID                                 : V_MPEG4/ISO/AVC
Duration                                 : 1h 30mn
Bit rate                                 : 5 104 Kbps
Width                                    : 984 pixels
Height                                   : 720 pixels
Display aspect ratio                     : 4:3
Frame rate mode                          : Constant
Frame rate                               : 23.976 fps
Color space                              : YUV
Chroma subsampling                       : 4:2:0
Bit depth                                : 8 bits
Scan type                                : Progressive
Bits/(Pixel*Frame)                       : 0.300
Stream size                              : 3.23 GiB (76%)
Writing library                          : x264 core 129 r2245+729M 1a52e03
Encoding settings                        : cabac=1 / ref=11 / deblock=1:-1:-1 / analyse=0x3:0x133 / me=umh / subme=10 / psy=1 / fade_compensate=0.00 / psy_rd=1.00:0.15 / mixed_ref=1 / me_range=24 / chroma_me=0 / trellis=2 / 8x8dct=1 / cqm=0 / deadzone=21,11 / fast_pskip=1 / chroma_qp_offset=-3 / threads=6 / lookahead_threads=1 / sliced_threads=0 / nr=0 / decimate=1 / interlaced=0 / bluray_compat=0 / constrained_intra=0 / fgo=0 / bframes=8 / b_pyramid=2 / b_adapt=2 / b_bias=0 / direct=3 / weightb=1 / open_gop=0 / weightp=2 / keyint=250 / keyint_min=23 / scenecut=40 / intra_refresh=0 / rc_lookahead=60 / rc=crf / mbtree=1 / crf=22.6 / qcomp=0.60 / qpmin=0 / qpmax=69 / qpstep=4 / ip_ratio=1.40 / aq=1:1.00
Language                                 : English
Default                                  : Yes
Forced                                   : No

Audio
ID                                       : 2
Format                                   : DTS
Format/Info                              : Digital Theater Systems
Mode                                     : 16
Format settings, Endianness              : Big
Codec ID                                 : A_DTS
Duration                                 : 1h 30mn
Bit rate mode                            : Constant
Bit rate                                 : 1 509 Kbps
Channel(s)                               : 2 channels
Channel positions                        : Front: L R
Sampling rate                            : 48.0 KHz
Bit depth                                : 24 bits
Compression mode                         : Lossy
Stream size                              : 978 MiB (22%)
Default                                  : Yes
Forced                                   : No

Text
ID                                       : 3
Format                                   : UTF-8
Codec ID                                 : S_TEXT/UTF8
Codec ID/Info                            : UTF-8 Plain Text
Default                                  : Yes
Forced                                   : No



Imagen
Imagen
Imagen
Imagen

Hace tiempo que no me paso por aquí a postear, aunque sigo entrando a descargar cosillas, eso sí. Por ser un mal usuario os regalo este ripeito y a ver si vienen más de ahora en adelante. Saludos.

:arrow: woman.they.almost.lynched.1953.720p.bluray.dts.fire

Avatar de Usuario
Dardo
Arrow Thrower Clown

Mensajes: 15903
Registrado: Dom 19 Oct, 2003 02:00
Ubicación: Entre Encinas y Dolomías

Re: Woman They Almost Lynched (Allan Dwan, 1953) HD 720p VOSE

Mensajepor Dardo » Lun 05 Mar, 2018 15:18

Muchas gracias firejuice y claro que tienes que traer tus ripeos hombrepofavódedió. :sonrisa:

:arrow:
Spoiler: mostrar
woman.they.almost.lynched.1953.720p.bluray.dts.fire.mkv [4.27 Gb] [Info]

charlie777

Mensajes: 61
Registrado: Mar 10 Abr, 2012 23:03

Re: Woman They Almost Lynched (Allan Dwan, 1953) HD 720p VOSE

Mensajepor charlie777 » Lun 05 Mar, 2018 17:52

Genial, muchas gracias Mr. Firejuice. Por muchos más.

ostrata

Mensajes: 1468
Registrado: Mié 24 Mar, 2010 17:29

Re: Woman They Almost Lynched (Allan Dwan, 1953) HD 720p VOSE

Mensajepor ostrata » Lun 05 Mar, 2018 20:14

Gracias. :)

Saludos.

larigan

Mensajes: 407
Registrado: Dom 15 Nov, 2015 17:00

Re: Woman They Almost Lynched (Allan Dwan, 1953) HD 720p VOSE

Mensajepor larigan » Lun 05 Mar, 2018 21:47

Gracias

joramor

Mensajes: 1364
Registrado: Vie 05 Nov, 2010 19:55

Re: Woman They Almost Lynched (Allan Dwan, 1953) HD 720p VOSE

Mensajepor joramor » Lun 05 Mar, 2018 23:57

Muchas gracias Firejuice. Salu2.

Avatar de Usuario
paizoco

Mensajes: 2412
Registrado: Vie 21 Nov, 2003 01:00
Ubicación: Far West

Re: Woman They Almost Lynched (Allan Dwan, 1953) HD 720p VOSE

Mensajepor paizoco » Mar 06 Mar, 2018 00:01

Me apunto, muchas gracias firejuice

Avatar de Usuario
Spanish Jhonny

Mensajes: 2300
Registrado: Mar 18 Sep, 2012 16:01

Re: Woman They Almost Lynched (Allan Dwan, 1953) HD 720p VOSE

Mensajepor Spanish Jhonny » Mar 06 Mar, 2018 08:48

Muchas gracias

Avatar de Usuario
duegno

Mensajes: 242
Registrado: Dom 28 Ago, 2011 13:28

Re: Woman They Almost Lynched (Allan Dwan, 1953) HD 720p VOSE

Mensajepor duegno » Mié 07 Mar, 2018 15:35

Gracias. Doblaje español ni se conoce, ¿no?

Avatar de Usuario
carrido

Mensajes: 296
Registrado: Mié 19 Feb, 2014 15:58
Ubicación: Freedonia

Re: Woman They Almost Lynched (Allan Dwan, 1953) HD 720p VOSE

Mensajepor carrido » Mié 07 Mar, 2018 15:39

Muchísimas gracias firejuice;por este Western de los años 50!!!.
Carrido

Avatar de Usuario
WalterBurns

Mensajes: 964
Registrado: Dom 11 Oct, 2015 15:08

Re: Woman They Almost Lynched (Allan Dwan, 1953) HD 720p VOSE

Mensajepor WalterBurns » Vie 16 Mar, 2018 21:46

Gracias por compartirla.

Avatar de Usuario
etayo

Mensajes: 1121
Registrado: Lun 12 May, 2003 02:00
Ubicación: Por ahí

Re: Woman They Almost Lynched (Allan Dwan, 1953) HD 720p VOSE

Mensajepor etayo » Lun 19 Mar, 2018 09:56

Gracias, pincho en espera a que la mula vaya más ligera

Avatar de Usuario
elmajete

Mensajes: 885
Registrado: Vie 18 May, 2007 22:05

Re: Woman They Almost Lynched (Allan Dwan, 1953) HD 720p VOSE

Mensajepor elmajete » Mar 20 Mar, 2018 09:51

Muchas gracias :plas: :plas: :plas:


Volver a “Cine Clásico”

¿Quién está conectado?

Usuarios navegando por este Foro: Lupissimo, Yahoo [Bot] y 2 invitados