El diario de Ana Frank (George Stevens, 1959) HD 720p Dual SE

Publica y encuentra enlaces p2p de filmes hasta 1980 en esta sección.
Responder
DCINE
Mensajes: 517
Registrado: Mar 20 Dic, 2016 15:02

El diario de Ana Frank (George Stevens, 1959) HD 720p Dual SE

Mensaje por DCINE » Jue 28 Dic, 2017 12:56

El diario de Ana Frank (The diary of Anne Frank)
1959

Imagen

Imagen


DIRECTOR: George Stevens
PRODUCTORA: 20th Century Fox
GUIÓN: Frances Goodrich, Albert Hackett (Biografía: Ana Frank)
MÚSICA: Alfred Newman
FOTOGRAFÍA: William C. Mellor, Jack Cardiff



ARGUMENTO Amsterdam, julio de 1942. Con objeto de escapar de la Gestapo, la familia Frank se esconde en la buhardilla del señor Krater. Allí convivirán con otro grupo de judíos: la familia Van Daan. Todo quedará reflejado en el diario de la pequeña hija de los Frank. (FILMAFFINITY) IMDB: http://www.imdb.com/title/tt0052738/

Doblaje TVE 1978: http://www.eldoblaje.com/datos/FichaPel ... sp?id=4494

Reparto: Millie Perkins, Joseph Schildkraut, Shelley Winters, Richard Beymer, Gusti Huber, Lou Jacobi, Diane Baker, Douglas Spencer, Dodie Heath, Ed Wynn


Datos Técnicos:

Código: Seleccionar todo

General:

Complete name                    : 1959 El diario de Ana Frank (The diary of Anne Frank) (George Stevens, 1959) BDrip 720p Dual (Spa (Doblaje TVE 1978)-Eng) SE-I.mkv
Format                           : Matroska
Format version                   : Version 2
File size                        : 7.09 GiB
Duration                         : 2h 59mn
Overall bit rate                 : 5 657 Kbps
Movie name                       : El Diario de Ana Frank (1959) BDrip Dual
Encoded date                     : UTC 2014-09-10 09:20:37
Writing application              : mkvmerge v5.8.0 ('No Sleep / Pillow') built on Sep  2 2012 15:37:04
Writing library                  : libebml v1.2.3 + libmatroska v1.3.0

Video
ID                               : 1
Format                           : AVC
Format/Info                      : Advanced Video Codec
Format profile                   : High@L3.1
Format settings, CABAC           : Yes
Format settings, ReFrames        : 5 frames
Muxing mode                      : Header stripping
Codec ID                         : V_MPEG4/ISO/AVC
Duration                         : 2h 59mn
Bit rate                         : 4 824 Kbps
Width                            : 1 280 pixels
Height                           : 544 pixels
Display aspect ratio             : 2.35:1
Frame rate                       : 23.976 fps
Color space                      : YUV
Chroma subsampling               : 4:2:0
Bit depth                        : 8 bits
Scan type                        : Progressive
Bits/(Pixel*Frame)               : 0.289
Stream size                      : 5.91 GiB (83%)
Title                            : The Diary of Anne Frank (1959)
Writing library                  : x264 core 68 r1183 f21daff
Encoding settings                : cabac=1 / ref=5 / deblock=1:0:0 / analyse=0x3:0x113 / me=umh / subme=7 / psy_rd=1.0:0.0 / mixed_ref=1 / me_range=16 / chroma_me=1 / trellis=1 / 8x8dct=1 / cqm=0 / deadzone=21,11 / chroma_qp_offset=-2 / threads=6 / nr=0 / decimate=1 / mbaff=0 / bframes=3 / b_pyramid=1 / b_adapt=1 / b_bias=0 / direct=1 / wpredb=1 / keyint=250 / keyint_min=25 / scenecut=40 / rc=2pass / bitrate=4824 / ratetol=1.0 / qcomp=0.60 / qpmin=10 / qpmax=51 / qpstep=4 / cplxblur=20.0 / qblur=0.5 / ip_ratio=1.40 / pb_ratio=1.30 / aq=1:1.00
Language                         : English
Default                          : Yes
Forced                           : No

Audio #1
ID                               : 2
Format                           : AC-3
Format/Info                      : Audio Coding 3
Mode extension                   : CM (complete main)
Muxing mode                      : Header stripping
Codec ID                         : A_AC3
Duration                         : 2h 59mn
Bit rate mode                    : Constant
Bit rate                         : 384 Kbps
Channel(s)                       : 2 channels
Channel positions                : Front: L R
Sampling rate                    : 48.0 KHz
Bit depth                        : 16 bits
Compression mode                 : Lossy
Stream size                      : 493 MiB (7%)
Title                            : Español
Language                         : Spanish
Default                          : Yes
Forced                           : No

Audio #2
ID                               : 3
Format                           : AC-3
Format/Info                      : Audio Coding 3
Mode extension                   : CM (complete main)
Muxing mode                      : Header stripping
Codec ID                         : A_AC3
Duration                         : 2h 59mn
Bit rate mode                    : Constant
Bit rate                         : 448 Kbps
Channel(s)                       : 2 channels
Channel positions                : Front: L R
Sampling rate                    : 48.0 KHz
Bit depth                        : 16 bits
Compression mode                 : Lossy
Stream size                      : 575 MiB (8%)
Title                            : Inglés
Language                         : English
Default                          : No
Forced                           : No

Text #1
ID                               : 4
Format                           : UTF-8
Codec ID                         : S_TEXT/UTF8
Codec ID/Info                    : UTF-8 Plain Text
Title                            : Español Forzados.
Language                         : Spanish
Default                          : Yes
Forced                           : Yes

Text #2
ID                               : 5
Format                           : UTF-8
Codec ID                         : S_TEXT/UTF8
Codec ID/Info                    : UTF-8 Plain Text
Title                            : Español
Language                         : Spanish
Default                          : No
Forced                           : No

Text #3
ID                               : 6
Format                           : UTF-8
Codec ID                         : S_TEXT/UTF8
Codec ID/Info                    : UTF-8 Plain Text
Title                            : Inglés.
Language                         : English
Default                          : No
Forced                           : No


Capturas:

ImagenImagen
ImagenImagen
ImagenImagen
ImagenImagen
ImagenImagen


Enlace: (Ripeo de autor desconocido, encontrado en emule, muchas gracias)

ed2k link1959 El diario de Ana Frank (The diary of Anne Frank) (George Stevens, 1959) BDrip 720p Dual (Spa (Doblaje TVE 1978)-Eng) SE-I.mkv ed2k link stats
Otras copias en la web:

DVDRip Dual SE: viewtopic.php?f=1002&t=24292&hilit=el+d ... frank+1959

DVDRip VOSE: viewtopic.php?f=1002&t=23371&hilit=el+d ... frank+1959

Avatar de Usuario
javisambo
Mensajes: 2136
Registrado: Mar 07 Ago, 2012 07:51
Ubicación: Yharnam

Re: El diario de Ana Frank (George Stevens, 1959) HD 720p Dual SE

Mensaje por javisambo » Dom 25 Feb, 2018 08:42

Gracias por el aporte DCINE. Elink gozando de estupenda salud.

Completada y compartiendo :)

Avatar de Usuario
paizoco
Mensajes: 2807
Registrado: Vie 21 Nov, 2003 01:00
Ubicación: Far West

Re: El diario de Ana Frank (George Stevens, 1959) HD 720p Dual SE

Mensaje por paizoco » Dom 25 Feb, 2018 23:23

Aprovecho y me apunto también, muchas gracias.

ostrata
Mensajes: 2316
Registrado: Mié 24 Mar, 2010 17:29

Re: El diario de Ana Frank (George Stevens, 1959) HD 720p Dual SE

Mensaje por ostrata » Sab 30 Ene, 2021 11:36

Gracias. :)

Saludos.

joramor
Mensajes: 1706
Registrado: Vie 05 Nov, 2010 19:55

Re: El diario de Ana Frank (George Stevens, 1959) HD 720p Dual SE

Mensaje por joramor » Sab 30 Ene, 2021 23:13

Muchas gracias y salu2.

Responder